<?xml version="1.0" standalone="no"?>
<!DOCTYPE svg PUBLIC "-//W3C//DTD SVG 1.1//EN" "http://www.w3.org/Graphics/SVG/1.1/DTD/svg11.dtd" >
<svg xmlns="http://www.w3.org/2000/svg">
<metadata></metadata>
<defs>
<font id="stampgothicregular" horiz-adv-x="1099" >
<font-face units-per-em="2048" ascent="1638" descent="-410" />
<missing-glyph horiz-adv-x="675" />
<glyph horiz-adv-x="0" />
<glyph horiz-adv-x="682" />
<glyph horiz-adv-x="624" d="M236 1380l43 -88l122 -41l66 56l31 65h24v31h-10l-14 14l14 10v9l-78 77l-110 15l-56 -23v-32l-32 -23v-70z" />
<glyph horiz-adv-x="792" d="M137 1186l25 -58l84 -38l10 -15l35 8l45 -12l33 12l10 -8h80l71 27l11 18l32 13l21 38l39 23l-12 53l18 10v39l-45 33l39 25v67l-21 13l-8 18l-35 12v15l-53 26l-90 6v7l-37 10l-20 -10l-43 -23l-56 -16l-8 6l-35 -8v-35l-28 -21v-20l-15 -25l-28 -8l-11 -78l-8 -37v-67z M285 1276l16 47l-14 27l30 20l31 10l35 17l45 -4l27 -29l22 -23l2 -28l21 -13l-21 -20l-2 -53l-26 -31l-48 -18h-43l-53 18l-14 51z" />
<glyph unicode="&#xd;" horiz-adv-x="1024" />
<glyph horiz-adv-x="405" d="M-383 29l33 -70h88l12 45l66 43l8 37h14l56 86l32 10l33 56l12 55l66 67l45 74l33 14l22 89l10 -11l101 111l10 41l64 80l14 55l78 45l-15 10l33 31h14l-14 14v11l47 45l-10 8l63 55l80 88l23 47l119 133l10 -14l55 88l15 45l-25 78l-31 33l-88 10l-78 -55l9 -10 l-78 -101l14 -10l-88 -100l-14 -41l-78 -80l-33 -78l-22 -41h-19l10 -14l-24 -23h-23v-41l-55 -33l-18 -55h-15l-78 -92l-73 -111l-37 -8l-56 -110l-8 8h-10v-19l-12 -12v-43l-43 -45v-10l10 -13l-47 -32l-8 -33l-88 -70l-15 -41l-53 -32l12 -13l-22 -24h-8v-19z" />
<glyph horiz-adv-x="1265" d="M109 -55v-33h10l22 -23l-10 -8l-12 -47h22l9 -8v-33l92 -14v-8l43 55l-11 8l134 14l41 64l32 143l15 78v111l22 47l-14 8v111l14 32l10 56l-24 22l-8 125l41 74l-9 12v10l45 70l95 31l-9 10l27 78l10 33l-24 22l14 55l-37 23l-82 27l-8 69l14 15v96l56 69l-15 9l33 47 l-33 32l15 9v14l10 33l-66 30l-36 -8v-22l-9 -10l-102 10l-41 -33v-55l-45 -47l-25 -56l-18 -133l10 -8l-10 -47l-102 -41v-10l12 -15l-37 -55l-10 -127l100 -59l25 -41l12 -15v-32l-12 -23v-121l-33 -67l22 -19l-22 -47l-10 -55l-13 -64l23 -180l-23 -96zM723 258l10 -235 l31 -31l47 -25h63l93 15l65 63v213v197l8 153l-18 101l-12 10l12 12h10v309h-65l-68 23l-43 -33l10 -12l-22 -25l-33 -63v-111l-23 -45v-143h-10l-14 -152l-19 -78l-12 -79h-10v-64zM856 1380l43 -88l123 -41l65 56l31 65h25v31h-10l-15 14l15 10v9l-78 77l-111 15l-55 -23 v-32l-33 -23v-70z" />
<glyph horiz-adv-x="1308" d="M109 -55v-33h10l22 -23l-10 -8l-12 -47h22l9 -8v-33l92 -14v-8l43 55l-11 8l134 14l41 64l32 143l15 78v111l22 47l-14 8v111l14 32l10 56l-24 22l-8 125l41 74l-9 12v10l45 70l95 31l-9 10l27 78l10 33l-24 22l14 55l-37 23l-82 27l-8 69l14 15v96l56 69l-15 9l33 47 l-33 32l15 9v14l10 33l-66 30l-36 -8v-22l-9 -10l-102 10l-41 -33v-55l-45 -47l-25 -56l-18 -133l10 -8l-10 -47l-102 -41v-10l12 -15l-37 -55l-10 -127l100 -59l25 -41l12 -15v-32l-12 -23v-121l-33 -67l22 -19l-22 -47l-10 -55l-13 -64l23 -180l-23 -96zM803 731l33 -31 v-47l22 -32l-14 -142l24 -55l-24 -23l37 -102l-23 -133v-55l33 -19l8 -133l70 -47l10 -31l156 -10l77 66l-14 8l25 37h-11l-14 10l14 63l-67 92h-43l-37 33l14 8l-22 23v33l8 55l14 88l-22 23l8 14l14 41l-22 22l-10 66l18 45l-18 47l10 8v56l8 118l37 148h10v33l-22 88v174 l-25 69l14 9l-32 32l-56 93l-22 -23l-15 -55l-73 8l-23 -64l23 -77l-37 -56l-8 -65l-11 -45l-22 -299l22 -23v-10z" />
<glyph unicode=" "  horiz-adv-x="675" />
<glyph unicode="&#x09;" horiz-adv-x="675" />
<glyph unicode="&#xa0;" horiz-adv-x="675" />
<glyph unicode="!" horiz-adv-x="565" d="M150 -14l8 -9v-22l69 -70l78 -10l88 66l-14 14v108h-19l-12 11v22l-98 23l-45 -23zM158 649l37 -133v-88l32 -63l78 -15l74 56l47 86l-23 24l23 166l8 45l-41 88l33 119l-10 14v56l-23 55l10 8l-24 47l24 78l-10 18l23 70h10l-23 23v32l-32 41l-56 37l-110 -37v-18l8 -15 l-18 -22l-13 -55l31 -111l-41 -119l10 -10v-78l23 -69l-23 -19v-67l13 -11v-22l-13 -10v-68z" />
<glyph unicode="&#x22;" horiz-adv-x="946" d="M139 1040l39 -102l33 -74l49 -24l92 43l8 90l23 45l14 67h11l8 222l-41 143h-23l-24 45l-86 10l-47 -10l-41 -111l22 -55l-24 -43l-2 -43l-5 -72l19 -108zM545 1040l39 -102l32 -74l50 -24l92 43l8 90l22 45l15 67h10l8 222l-41 143h-22l-25 45l-86 10l-47 -10l-41 -111 l23 -55l-25 -43l-2 -43l-4 -72l18 -108z" />
<glyph unicode="#" horiz-adv-x="1228" d="M47 455l72 -33l45 -4l20 -25l-24 -108l2 -19l-23 -55l-30 -191l36 -30l21 -56h33l94 -14l49 33l-6 37l18 73l-14 13l31 24l-19 31l15 43l30 12l-39 99l33 22l-18 15l49 40l4 39l35 21h69l64 -12l22 6l25 -13l25 -22l-19 -47l19 -66l-19 -39l-18 -133l-15 -102l-8 -53 l45 -43l49 -13l74 11l35 24l6 39l-10 43l20 37l15 24l-2 31l14 43l-12 33l4 78l-15 18l29 19l8 53l2 41l17 22l18 15l29 -2l90 8l43 24l65 48l-20 36l-12 39l-64 2l-20 19l-51 2l-27 31l18 57l11 33l-21 30l27 48l26 34l54 11l43 24l65 47l-2 49l-31 29l-57 4l-31 2l-16 6 l-18 23l24 47v78l29 33l14 77l-18 97l18 49l-16 43v55l-27 19l-31 -17l-39 4l-22 -16l8 -45l-41 -12l-2 -41l4 -29l21 -29l-39 -55l14 -70l-31 -67l4 -39l-14 -80l-20 -25l-13 -14l-28 -6l-31 12h-55l-129 10l-41 5l-17 20l-12 14l-2 11l31 55v78l28 32l-24 78l16 97l-8 100 l14 -8v55l-26 18l-19 -32h-30l-5 -33l-30 -8l12 -15l-18 -22h-11l-2 -74l43 -37l-59 -96l-2 -70l-29 -18l19 -100l-21 -25l-8 -6l-16 -10l-31 -9l-113 -14h-76l-71 -55v-62l71 -32l119 -9l27 -16l-8 -37l-23 -49l-29 -55l-34 -41l6 -33l-10 -18l-19 -9h-57l-72 -53v-61z M436 762l23 18l4 37l24 21l72 -2l64 -13l71 6l64 -12l22 -8l2 -31l-34 -90l-29 -55v-25l-19 -16l-34 -14l-111 6l-70 -11l-22 15l2 18l4 111z" />
<glyph unicode="$" horiz-adv-x="1247" d="M131 328l23 -19l32 -92l15 -10l55 -133l74 -33v-23l12 15h10l109 -62l-12 -178l38 -24l23 -56l33 4l94 15l45 55l-10 39l10 94l-14 4l24 35l92 -4l33 31h8l25 -9l22 19l101 55l55 92h19l55 64v188l-8 11l8 55l14 67l-47 121l-8 33l-33 12l-14 56l-41 18l-78 147h-23 l-77 19v14l-68 13l37 124l-12 13l-4 12l26 72l-8 90l4 8l80 -14l22 -19l64 -14l92 -8l33 63l-47 33l14 14l-67 78l-89 19l-22 -19h-33l-22 8l12 11h18v36h-30l-33 -14l4 68l-14 112l12 -4l-2 66l-29 14l-14 -45l-31 -8l-2 -39l-29 -21l13 -12l-15 -33l-10 -2l6 -86l45 -30 l-12 -29l-33 16v25h-45l-18 22l8 9v24l-78 -33l-55 -110l-10 8v-23l-13 -8l-98 41l-68 -65l13 -56l-45 -53h-23l12 -33l-22 -143l22 -22v-23l99 -166h37l18 -33l147 -77v-11l3 -32l-19 -72l-35 -60l11 -36v-56l-11 -2l8 -35v-41l-12 -2l8 -43l-4 -22l-16 -23l-31 31l-26 72 l-56 63l-55 25l-33 12l-86 33l8 -14l-8 -9l-33 -22zM440 1210l23 70h14v31l31 24v64l24 22l31 -8l33 -78h33l22 -14v-2l-6 -16l4 -80l-24 -31l26 -111l-18 -34l-8 -3l12 -8l2 -14l-10 -61l-11 10l-12 -15h-10l-23 25v8h-41l-79 70zM698 381l17 37l22 108l-4 54l8 2l-4 112 h15l10 -12l8 -33h37l43 -102l12 -96l-55 -156l-92 -66l-8 11l16 47l6 67z" />
<glyph unicode="%" horiz-adv-x="1529" d="M70 1044h32l13 -8v-55h-23v-111l33 -102l100 -63l11 -23l45 12l55 -22l41 22l14 -12h96l88 45l15 33l41 22l22 64l47 33l-14 92l23 18v70l-56 55l47 41v111l-22 22l-10 33l-45 22v23l-66 47l-111 8v11l-45 14l-24 -14l-53 -41l-66 -25l-14 10l-41 -18v-55l-33 -37v-33 l-23 -41l-32 -14l-37 -23zM78 33l47 -78l55 -47l78 14l78 19l18 67l37 66l55 22v33l11 14h8l147 166l41 64l56 10v23l47 12l30 -35l11 -33l-41 -33l-15 -45l-32 -73l32 -47l-8 -46l23 -18l-15 -14l93 -88l-23 -23l23 -22v-19l96 -37l78 -55l32 -10v-8h23l65 18l37 23l9 -9 l102 41l18 45l13 47l88 74v148l22 41l-45 125l-78 96l-55 55l-65 55l-252 13l-15 -37h-33l-22 14v23l37 73l55 48l55 8l97 147h22l47 66l19 8l-10 14l32 33l-10 8l88 78l10 25l68 30l-12 15l45 32l32 97h23l10 125l-33 41l-32 14v-14l-111 -33l-45 22l-65 -45l-64 -110 l-47 -64l-100 -102l-19 -56l-14 -8h-23l-41 -80l-32 -8l-78 -102v-64l-70 -69l-96 -41l-47 -45l14 -11l-125 -143l-8 -45l-33 -22l-14 -56l-86 -65l-23 -56h-43l-78 -77l-14 10v-43l-31 -31zM244 1137h14l10 88v-15l13 -8l73 53l56 -8l36 -45v-55l33 -25l23 -22l-23 -33 l-22 -86h-25l-55 -80h-53l-56 80v55l13 8l-13 15zM977 217l41 100l78 -8v-102l14 -8h18l15 -80l8 -13l-64 -43h-55z" />
<glyph unicode="&#x26;" horiz-adv-x="1318" d="M135 248l45 -103l41 -41l15 -36l65 -33l45 -55l88 -23l31 -8l10 8l14 -8l56 -10v-15l63 25l47 -25l31 33l47 -8l31 31l98 24l23 -33h88l22 -22l70 22l8 9l10 -9l78 64l23 80l-23 22v41l-55 101l14 10h8v45l23 80l23 30l10 -8v19l-78 155l-96 11l-56 -19l-14 -14l-55 14 l-66 64v133l25 24l18 31h37l41 66h23l22 55l10 -10v41l33 36l12 222l-45 55l15 10l-37 45l-99 74l-67 22l-184 15l-70 -37l-8 -8l-15 8h-18l-133 -152l-33 -88l8 -37l-22 -18h14l8 -12l-8 -11h-14l14 -55l8 -100l25 -25l-14 -141l-56 -55l-8 14h-10l-125 -166v-55l-31 -70 v-229zM410 367l24 22l-14 10l92 125h18l15 31l30 -8l80 -125l31 -96l10 -15h15l-25 -41h-8l-37 -37l-10 15l-64 -55l-102 30l-45 56zM655 1116l9 37l47 55l30 -45l11 -10v-23l-41 -22l-15 -10l-10 -13v-10z" />
<glyph unicode="'" horiz-adv-x="528" d="M139 1040l39 -102l33 -74l49 -24l92 43l8 90l23 45l14 67h11l8 222l-41 143h-23l-24 45l-86 10l-47 -10l-41 -111l22 -55l-24 -43l-2 -43l-5 -72l19 -108z" />
<glyph unicode="(" horiz-adv-x="884" d="M90 657l23 -147l43 -176l-11 -121l21 -123l33 -63l55 -56l12 -47h33l8 -8l25 -55l55 -23l45 -80l55 -30h78l19 -25l127 -8l88 84l-25 67l-88 78l-133 37l-98 121v63l-37 37l-25 86l-6 113l-25 104l13 109l12 151l-12 97l18 53l23 41l16 53l-14 10l31 103l49 63l100 133 l133 31l41 33l21 70l-31 55l-68 33l-125 -7l-114 -26l-37 -33l-8 10l-88 -65l-33 -56l-10 -8l-37 -39l-54 -94l-8 -57l-14 -12l8 -15l-2 -18l-16 -23l-50 -180l-8 -129z" />
<glyph unicode=")" horiz-adv-x="884" d="M113 -221l88 -84l127 8l18 25h78l55 30l45 80l56 23l24 55l8 8h33l12 47l56 56l32 63l21 123l-10 121l43 176l22 147l-8 111l-8 129l-49 180l-17 23l-2 18l8 15l-14 12l-8 57l-53 94l-37 39l-10 8l-33 56l-88 65l-8 -10l-37 33l-115 26l-125 7l-67 -33l-31 -55l20 -70 l41 -33l133 -31l101 -133l49 -63l31 -103l-15 -10l17 -53l22 -41l19 -53l-13 -97l13 -151l12 -109l-25 -104l-6 -113l-24 -86l-37 -37v-63l-99 -121l-133 -37l-88 -78z" />
<glyph unicode="*" horiz-adv-x="1044" d="M86 1221l39 -62l80 -39l51 -10l31 -16l4 -35l-8 -25l-33 -80l-33 -45l31 -90l71 -51l70 16l62 64l20 43l33 16l33 -2l26 -28l68 -58l31 -45l96 2l71 51l7 74l-43 78l-80 49l-13 33l15 26l28 -12l33 21l51 18l80 35l21 45l24 76l-30 49l-27 49l-55 -10l-9 22l-43 -14 l-6 -10l-69 -39l-17 -25l-30 -10l-27 10l-12 21l-6 49l18 70l-8 86l-37 32l-66 47l-55 -14l-55 -10l-8 -55h-23v-45l8 -11l17 -129l-21 -26l-24 -2l-37 32l-86 6l-54 19l-77 -57z" />
<glyph unicode="+" horiz-adv-x="1069" d="M131 649l55 -47l88 -12l136 12h43l2 -6l-13 -117l21 -84v-55l78 -55h88l47 55l12 88l-12 135v29l90 -31l27 33h55l86 8l33 37l47 66l-15 55l-10 55l-55 8v23h-45l-10 -8l-78 -15l-23 -18h-33l-22 18h-14l8 23l-33 26v129l-8 86l-37 33l-66 47l-55 -14l-55 -10l-8 -56h-23 v-45l8 -10l15 -151l18 -23v-29l-31 -6l-116 13l-84 -21h-56l-55 -78v-88z" />
<glyph unicode="," horiz-adv-x="516" d="M84 -176l45 -33l49 -8l29 8l69 21l43 55l54 61l35 52l16 53l12 65l-37 25l15 31l-23 26l-14 51l-39 27l-37 6l-45 -2l-45 -12l-14 -35l-43 -27v-73l24 -21l-12 -37l47 -37l-14 -51l-54 -47l-32 -24l-13 -29z" />
<glyph unicode="-" horiz-adv-x="761" d="M131 649l55 -47l244 -8h55l86 8l33 37l47 66l-14 55l-10 55l-56 8v23h-45l-10 -8l-78 -15l-22 -18h-33l-23 18h-41l-77 -8h-56l-55 -78v-88z" />
<glyph unicode="." horiz-adv-x="589" d="M174 37l37 -53h57h49l56 24l10 37l18 133l-41 41l-110 8l-76 -37v-153z" />
<glyph unicode="/" horiz-adv-x="800" d="M37 8l31 -31l10 -55h33l92 -14l55 33v36l31 74l-13 12l37 25l-14 31l23 43l32 12l-22 98l37 23l-15 14l56 41l22 56l-22 30l22 25l45 86l10 47h9l24 111l-24 45l24 18v47l45 55v45l66 97l-10 14v10l41 56l14 77l33 33l-11 78l33 96l10 101l13 -9l10 56l-23 18l-24 -33 h-31l-10 -32l-33 -9l10 -14l-22 -22h-10l-15 -74l37 -37l-78 -96l-14 -70l-31 -18v-101l-24 -24h-9l9 -8v-15l-31 -63h-23l-55 -80l-74 -133l-37 -56l-43 -41v-32l-12 -45h-10v-33l-8 -33h-15v-37l-10 -18l-31 -23l-14 -123h-10l10 -10v-8l-33 -55z" />
<glyph unicode="0" horiz-adv-x="1378" d="M137 901l8 -41v-221l33 -45l-8 -111l55 -118v-56l23 -92l63 -111l70 -65l96 -78l277 -8l110 22l111 56l33 30v25l67 74l-12 12v10l45 56l-8 32l30 56v45l33 119l33 36l-10 11v8l33 47l-9 8v14l19 177l-19 67l9 10l10 45l12 -14v25h-12l-10 8v92l-64 121l-25 63l-55 148 l-67 41l-19 47l-69 -33l-33 74h-23l-22 -33l-11 14l-63 -36l-47 92l-78 32v-14l-8 -10l-70 33l-33 -33l33 -31l-10 -47l25 -22v-41l-48 -15l-55 78l-41 -41l-14 8v-45l-8 -18h-15l-8 8v10l-10 37l-125 -125l14 -8l-37 -78l-8 -47l-65 -143v-56zM422 602l24 148l-10 73 l-14 15v32h14l41 166v8l-8 15h8l23 22v88l80 78l22 96l33 23h78l18 33h23l14 -56l8 -8h25l55 -133v-47l23 -18v-45l8 -11h10l-18 -37l8 -96h10l12 -143l-22 -23l22 -77v-33l-12 -15l23 -18l-41 -68l8 -110l-23 -25v-8l15 -10l-125 -146l-56 -18h-8l-14 -14l-41 32h-55 l-70 93l-33 71l15 15v10l-37 12l-9 111z" />
<glyph unicode="1" horiz-adv-x="854" d="M111 1110l14 -88l41 -55l135 -23l53 41l47 -33l-14 -88l23 -22l-9 -8l-14 -78l-8 -332h-10l18 -55l-18 -111l-15 -65l-8 -134l33 -22l-10 -10v-13l41 -32l47 22l32 -45h31l80 55l8 -10l47 96l9 80l-19 45l10 11l9 219h22v24l-22 78l36 33v45l-22 18l8 15l-8 55l8 22v119 l14 221l-22 324l22 31l-36 43l-9 12v10l9 15l-19 63h-37l-18 10l-55 13l-15 -23h-41l-22 -22l-70 -78l14 -10l-88 -101l-45 -55l-10 12v-31l-45 -69l-33 -8l10 -15v-10z" />
<glyph unicode="2" horiz-adv-x="1247" d="M131 137l47 -67l238 -11l55 -22l80 8l78 -18l22 18l254 -8l78 33l8 12l15 -12h8l24 45h23l8 -15l47 56v110l-47 80l-55 23l-101 22l-174 10l-10 -10l-45 10l-55 -32l-103 22v23l56 73l-9 15l31 41h25v22l119 135l14 -10h8l33 19l147 147l33 41l-14 14l22 19h15l8 69 l55 152l-31 37l23 41l-14 14v96l-23 56l-88 88l-55 22l-56 45l-110 -12l-23 23l-129 14l-22 -25l-15 11l-63 -23l-78 -33l12 -10l-67 -55l-11 10l-55 -111l-14 -55l-8 -96h-11l43 -70l56 -22v-11l12 11h74l24 45h23l33 47l-11 33l23 30l33 11l10 36h22l45 64h33l56 -8 l77 -15l74 -118l-8 -15v-10l-10 -55l-92 -86l-19 -33l-14 8l-86 -63l-33 -47h-23l-32 -78l-133 -78l-48 -74l-86 -55v-45l-32 -55l-23 -103l-33 -18v-123l-32 -43z" />
<glyph unicode="3" horiz-adv-x="1282" d="M133 336l33 -100l141 -166l125 -97h64l55 -36l166 -11l55 33h47l152 86l33 14l55 111l22 66h23v77l33 45l12 121l-78 221l10 9l-110 102l45 100l55 166l33 8l-10 33l-13 15v32l13 56v63l-101 180l-55 -14l-23 23l-22 47l-74 18v12l-92 25l-10 -14l-101 22l-41 -8 l-110 -25l-25 -22l-63 -23l-92 -65l-19 -86v-70l56 -78l73 -18l37 33l8 -15h11l55 45l14 33l86 55l103 15l96 -47l45 -78l-23 -23l-8 -65l-37 -56h-18l-25 -63l-67 -14l12 -9l-100 -32l-119 -37v-33l-14 -23h-19l-14 -88l33 -55l100 -31l121 -10l67 -55l11 10l100 -88v-143 l-45 -68l-23 -55l-143 -88h-88l-64 55l-36 78l-97 119l-14 14v10h-152l-55 -102v-41z" />
<glyph unicode="4" horiz-adv-x="1257" d="M131 479l14 -10l41 -55l103 -23l22 23l144 -23l55 -14l100 -8l41 -47l-8 -86l23 -25v-41h-23v-111l31 -67l10 -43l111 -31l14 8l86 23l25 88l30 63l-8 80l-37 31l37 37l-14 55l22 19l-8 14l64 55l10 -14l92 69l18 78l-98 111l-45 10l-63 64l22 77l8 125v129l-100 78 l-10 -8l-78 -25l-23 -63h-10l-31 -78l23 -55l-23 -55l9 -15l-23 -18l23 -45l-9 -56h-14v-32l-41 -47l-47 14h-111l-22 33l22 96l88 244h15v47l41 41v78l37 22l18 143h14l23 101l-23 24l23 41l-78 101l-25 -23l-77 33v-10l-97 -101v-41l-36 -37l-19 -32l10 -78l-24 -19 l-41 -92v-121l-37 -30l14 -15v-10l-22 -45v-55l-25 -19v-14l15 -8l-23 -25v-45l-47 -119l-31 -47l-33 -96h-14l23 -22z" />
<glyph unicode="5" horiz-adv-x="1196" d="M129 303l14 -37v-41l56 -125l86 -96l10 10l22 -22l78 -43l97 -23l79 -22l23 22h63l48 23l8 -12l69 22v23l56 10v22l63 45l33 56l22 10v45l88 231v78l-8 8l23 23l-15 55l23 47l-23 78l-8 10v45l-47 129l-33 46l15 10l-156 110l-88 23l-111 14l-100 -22l-43 30l19 25l-9 31 l-10 10v123l33 43l121 -10l45 -33l78 -12h88l41 -33l22 22h47l23 23l41 10l47 88l-55 166l-78 37l-103 -25l-8 -12l-10 12h-12l-56 25l-55 -25l-10 -12h-45h-56l-10 -10l-133 -8l-22 18h-66l-123 -98l23 -45l14 -11l8 -122l-33 -88l-12 -152l-18 -47l30 -78l-22 -55l-8 -97 l63 -92l33 -18l111 -14l86 55v33l135 125l110 -48l13 -118l18 -47l14 -134l-69 -96l24 -22l-55 -56l12 -10l-37 -55h-110l-41 43l-14 -10h-9l-22 22l-33 19l8 14l-18 22l-35 19l-55 47l-66 22l-63 -55h-37zM528 369l19 -33l24 22v56h-24z" />
<glyph unicode="6" horiz-adv-x="1181" d="M129 723l8 -102l15 14l18 -23l-10 -32l-8 -101l18 -24l-18 -23v-8l18 -23l-10 -110l55 -88l-8 -10h-14v-13h22v13l47 -101l64 -47l65 -53l92 12l19 -22v-9l155 9l11 10l90 12l43 41l141 102v78l47 33l-10 8l65 111l-10 125l19 78l-19 18l-37 166l-18 14l-23 78h-14 l-18 41l-93 47l-18 41l-22 23l-78 14l-78 -47l-41 47h-158l-22 18v37l14 19h8l23 78l43 55l67 78l11 -9h14l31 41h24l72 -65l14 10h23l18 -22l25 -56l55 -18l123 8l33 33l10 69l-10 9l-15 65l-41 23l11 14h-25l-18 18v23h-37l-31 33l-65 12l-70 33l-72 10l-102 -33v-10 l-119 -45l-25 -66h-22l-33 11l-67 -56l-11 -65l33 10l23 -22v-33l-9 -8h-14l-33 -103h-8v-33l8 -8l-110 -55l-8 -37l18 -18l14 -37l-24 -19l10 -14l14 14l31 9l33 -64v-45l-8 8h-15l-18 -18l-37 33h-10l-8 -33h-15v-23zM317 778l19 56h22v-48l-10 -8h-31zM373 502v63l18 25 l23 110l78 56l55 45l88 -15l55 -41h31l24 -69v-55l13 -9l-37 -32v-189l-41 -45l10 -43l-33 -37l11 -8l-43 -47l-13 14h-18l-14 -14v-18l-78 43l-19 45l-37 22v55l-10 11l-45 133h-18z" />
<glyph unicode="7" horiz-adv-x="1136" d="M127 1329l31 -78l-8 -8l-15 -92l92 -121h56l96 33l22 22l11 -8v64h22l23 65l32 37l23 8l158 23l73 -45v-64l23 -24h22v24l11 56h67l25 30h31l-56 103l-30 30h-56l-80 66l-155 14v9h-41l-23 22l-14 -12l-18 22h-48l-86 -10l-47 25v-15l-110 -41l-8 -55h-15zM260 59l31 -32 v-35l-8 -33l73 -65l70 -13l63 23l33 33l45 100v63l25 47l8 56v63l47 103l-14 8l37 102l41 56v77l32 78l13 33h-23l-45 22v19l23 55h32l13 92l24 19l8 -10l66 55l23 55l-41 33l-37 -8l-111 -47l-55 -56l14 -8l-24 -24h-9l-47 -64l-55 -111l-55 -92l-31 -96h-14l-11 -102 l-45 -31l-10 -55h-8v-47l-23 -31l-14 -43zM977 1372l33 -10v22h-23z" />
<glyph unicode="8" horiz-adv-x="1267" d="M131 358l19 -45l-9 -55l56 -78l-11 -10l88 -143h41l25 -23l68 -31l18 -47h55l37 -22l55 -10l56 24h96l80 19h63l37 45l96 63l89 135l22 56l23 100l-23 143l-33 142l-100 102v33l-41 22v23l8 10l23 100l32 33l48 86v55v121l-25 101h-23l-8 10v37l-55 55h-47l-31 31 l-102 55l-111 10l-33 -10v-45l-22 -23h-8l-78 13l-33 -23l-47 47l-18 -24h-13l-24 -56h-56l-73 -110h-23v-123l-33 -41v-33l11 -37l8 -10v-55l37 -64l32 -37l11 -96l-43 -78l-68 -79v-31l12 -33l-22 -22l-23 -33l9 -47l-19 -23v-74zM408 303v43l18 23l-8 100l22 18v70l56 8 l41 70l14 -14l22 32h33v-8l96 -10h37l97 -148l24 -41l-10 -69l-23 -64v-32l-102 -101l-8 13l-15 -13l-118 -24l-47 24h-56l-30 23l-25 22l14 11l-14 12zM426 1151l25 70l30 8l37 33l-12 45l22 22v10l31 -32l70 47v63l65 10l23 23l8 -10l25 -23l-11 -8l33 -47l-33 -45l41 -43 l-8 -12l41 -11l70 23l8 10l-8 14l22 19v-43l-45 -23v-55l8 -8h15v-23l-33 23l-70 -92v-33l-41 -23l-37 -55l-32 -18l-64 -23l-133 64l-10 88z" />
<glyph unicode="9" horiz-adv-x="1232" d="M131 1081l23 -202v-111l22 -18l33 -68l22 -25v-55l66 -86l45 -24l55 -64h56l41 -33l14 11l33 -41l8 8h22l166 10l25 -33l-25 -22v-33l-41 -41l11 -14l-25 -23h-8v-18l-15 -25l-110 -31l-119 129l-111 13l-102 -56l-18 -86l10 9l22 -23l-14 -10v-45l111 -119l110 -47v-8 l111 -15v-10l47 -8l31 18l24 -18h31l33 8v10l92 45v11l96 45l-8 10l31 45l47 55l-15 10l56 78v101l22 55l11 55h14l22 121l-14 12v11l23 22l10 152l-41 55l8 221l23 47h-9l-47 111l-8 8l-37 133l-119 144l-110 69v23h-33l-14 8l-111 10l-119 -33l-65 15l-133 -103h-33v-30 l-12 -15h-11l-32 -88l-23 -33l-14 -155zM430 860l23 66l-15 8v158l37 30v80l33 53l63 48l56 -23l24 -33h31v-37l14 -8l33 -65l8 -15l47 -86l-14 -198l-18 -88l-45 -23l-25 -70l-96 15l-111 65l-22 56v45z" />
<glyph unicode=":" horiz-adv-x="595" d="M162 33l110 -56l56 -14l100 70l10 110l-32 56l-144 30l-92 -100zM162 639l31 -37v-31l-9 -10l78 -69l19 24l-9 55l64 78l14 -10l56 -23v11l-70 100l-96 23l-23 -13z" />
<glyph unicode=";" horiz-adv-x="595" d="M115 -176l45 -33l49 -8l29 8l69 21l43 55l53 61l35 52l17 53l12 65l-37 25l14 31l-22 26l-14 51l-39 27l-37 6l-45 -2l-45 -12l-15 -35l-43 -27v-73l25 -21l-12 -37l47 -37l-15 -51l-53 -47l-33 -24l-12 -29zM162 586l110 -56l56 -14l100 70l10 110l-32 56l-144 30 l-92 -100z" />
<glyph unicode="&#x3c;" horiz-adv-x="1222" d="M90 813l47 -108l62 -80l12 -31h20l54 -80l39 14l34 -55h41l35 -33l12 11l66 -23v-10l8 10l27 -33h28l95 -45l10 12l102 -55v-12l29 12l18 -22l66 -23l20 -41h19l8 8l21 -22l8 14h37l82 96v78l-7 8v37l-55 66l-31 8v14h-26l-29 33h-39l-139 55v9h-29l-8 -9l-57 33v13 l-8 -13h-21l-27 31l-28 47l28 33h48l18 22l20 31l17 -22l65 14l13 8h73l35 25l60 -11l45 41l10 -8h10l37 33v22l25 9v47l40 55l-18 33l10 8l-80 102l-118 -10l-129 -45l-125 -33l-95 -55h-47l-47 -55l-102 8l-55 -31l-39 -10l-19 18l-8 -8l-74 -47l-32 -8z" />
<glyph unicode="=" horiz-adv-x="1069" d="M131 360l55 -47l88 -12l136 12h82l49 -16l53 8l98 -33l27 33h55l86 8l33 37l47 66l-14 55l-11 55l-55 9v22h-45l-10 -8l-78 -14l-22 -19h-33l-23 19h-41l-96 12l-70 -12l-116 12l-84 -21h-56l-55 -77v-89zM131 748l55 -48l88 -12l136 12h82l49 -16l53 8l98 -33l27 33h55 l86 8l33 37l47 66l-14 55l-11 55l-55 9v22h-45l-10 -8l-78 -14l-22 -19h-33l-23 19h-41l-96 12l-70 -12l-116 12l-84 -21h-56l-55 -77v-88z" />
<glyph unicode="&#x3e;" horiz-adv-x="1222" d="M98 1026l41 -55v-47l25 -9v-22l37 -33h10l10 8l45 -41l60 11l34 -25h74l12 -8l66 -14l16 22l21 -31l18 -22h47l29 -33l-29 -47l-26 -31h-21l-8 13v-13l-57 -33l-8 9h-29v-9l-139 -55h-39l-29 -33h-27v-14l-30 -8l-56 -66v-37l-6 -8v-78l82 -96h37l8 -14l21 22l8 -8h18 l21 41l65 23l19 22l28 -12v12l103 55l10 -12l94 45h29l27 33l8 -10v10l65 23l13 -11l34 33h41l35 55l39 -14l53 80h21l12 31l62 80l47 108l-62 80l-33 8l-73 47l-8 8l-19 -18l-39 10l-55 31l-102 -8l-48 55h-47l-94 55l-125 33l-129 45l-119 10l-80 -102l11 -8z" />
<glyph unicode="?" horiz-adv-x="1011" d="M102 1141h13l10 -8v-48l63 -41l15 11h63l56 55l-23 100l55 66v45l56 55h-41l-23 -78h-24l-9 9v14l23 18l-14 15l-97 55l-37 -25l-63 -174l-10 -36h-13v-33zM354 70l23 -19v-37h24l101 -55l88 45l22 111l-55 55v33h-37l-33 14l-55 -14l-55 -56zM354 492l92 -146h33l41 12 l70 56v55l22 23l9 73h24l31 111l33 14l14 66l41 45l70 78l40 18l-8 14l23 23l55 184l-37 47l-10 -10l-31 19l8 14l-55 -14l-41 55l-47 -41l10 -33l-18 -55h-14l14 -15l-55 -55l-15 -55l-78 -55l-55 -64v-45l-88 -98l33 -37l-33 -31zM520 1417h23l47 -33l-15 -8h23l47 -22 l23 22l41 -47l14 -31l55 -32l41 41l55 14l-8 8l-14 47h-41l-47 -22l-8 -15h-33l-23 23v14l-14 56l-10 41l-31 -56h-24l-86 56z" />
<glyph unicode="@" horiz-adv-x="1882" d="M68 705l22 -25l-16 -129l12 -117l-14 -131l24 -108l23 -84l37 -88h32l9 -9l28 -92l56 -22l81 -113l101 -41l82 -37l28 -41l160 -37l70 21l69 -33l82 -4l144 25l127 -9h49l65 -24l66 41l57 16l66 29l65 16l41 45v62l-45 61l-45 8l-90 -24l-164 -17l-127 -8l-184 -8 l-127 -16l-127 36l-82 29l-74 98l-110 50l-37 61l-33 41l-31 80l-12 160l-18 47l26 51l-28 129l28 31l-24 39l-4 57l28 149l-6 50l53 51l19 47l47 67l18 60l54 61l63 2l45 70l70 4l65 45l62 -8l49 29l102 12l86 12l86 -20l60 6l35 -35l55 -14l45 -31l14 -45l37 -53l19 -45 l14 12v-68l37 -47l28 -63v-111v-129l-10 -78l-22 -47v-119l-25 -55l-51 -29l8 -36l-33 -41l-18 -27l-23 -6l-34 2l-52 31l-20 137l20 20l-18 49l22 95l-6 77l39 154h21l-11 8l29 31l-4 51l18 35l-26 45l-62 -4l-22 16l-105 -10l-18 -29l-45 -4l-86 43l-53 -4l-58 -55l13 -8 l-29 -33h-10l-76 25l-2 8l-53 6l-50 -25l-20 -30l-10 8l2 -19l-70 -47l6 -61l-57 -62l2 -51l-45 -53l2 -27l12 -22l-18 -23v-6l14 -49l-24 -74l26 -49l21 -115l35 -71l18 -56l35 -26l59 -78l45 -27l78 -28l31 8l22 -19l92 9l103 28l41 27l61 12l23 -18l2 -8l61 2l47 -35 l7 14h14l129 -14l55 41l141 133l33 70l45 65l11 64l65 73l-8 33l18 78l39 188h23l-23 25v8l8 14l-22 33l22 55l-22 56l-72 65l29 99l8 10l-31 55l-14 14l14 9l-20 14h-25l-8 12l8 11l-30 45l-86 90l-72 86l-31 12l-88 74l-84 16l-96 -2l-31 33l-127 2l-106 -12l-131 -37 l-74 8l-68 -16l-88 -43l-49 -19l-37 -33l-8 11l-88 -66l-25 -18l-30 -37l-66 -64l-20 -37l-33 -36l-35 -41l10 -39l-41 -52l-49 -104l-16 -147l22 -31zM739 418l15 65l-9 107l21 2l10 100l53 111l82 41l2 -21l64 -22l2 -21l37 -28l-4 -99l10 -121v-90l-8 -36l-6 -35l-9 -11 l2 -20l-16 12l-16 -35l-41 11l-88 -80l-23 -2l-4 41l-10 8l-25 41l-12 35l-2 12z" />
<glyph unicode="A" horiz-adv-x="1294" d="M61 23l33 -9v-37l56 -40l8 8l32 -33l70 25l78 55l33 96l8 68l14 43l8 67l88 88h291l86 -63v-55l43 -103v-55l23 -23l-23 -22l23 -10l14 -31l64 -33v-22l77 -15l41 23v47l25 22l23 74l-23 133l-33 23l8 47l-18 18l-12 78l-11 14l11 31l-33 88l-8 64l-15 14v23l15 10 l-37 55l-66 252l-8 55l-14 70l-23 18l-10 70h-22l-11 8v33l11 55l-56 92l23 41h-8l-15 15l-33 18v78l-22 33l-66 14l-30 23l-47 -37h-101l-41 -33v-78l-55 -166l-47 -63l-8 -56l-56 -157l-24 -97l-53 -165v-70l-80 -152l-8 -86l-23 -47l-33 -143l-22 -133zM545 764l33 88 l45 55v64h10l37 78l30 -31v-88l11 -70l14 -8v-10l-25 -23l33 -69l10 -9l23 -22l-10 -33l-68 -55l-110 8l22 47l14 8z" />
<glyph unicode="B" horiz-adv-x="1378" d="M170 842l23 -31l-11 -14l33 -33l-22 -78l32 -74l-10 -14l-8 -166l18 -141l-18 -25v-22l-14 -74v-133h14l41 -88l133 -45l88 45l45 -23l96 11h125l33 22l88 8l12 15l33 -15l64 70l32 8l148 111l18 88h15l55 188h8v78l-8 88l-23 55l-32 78l-78 103h-47l-19 40l19 23l14 33 l55 78l33 47l-10 8l18 88h15l-15 14v19l-8 53l-10 55l-45 80h-33l-33 45l-125 88l-108 8l-66 -18l-55 43h-33l-12 -10h-55l-287 10l-55 -43l-23 -45l-8 -78l18 -88l-18 -22v-56l8 -65l-22 -45l32 -66l-18 -123zM469 336l23 41l-11 14v144l-12 8h12l11 55l8 14l-31 41l31 33 l-8 14l32 41h123l10 15l64 -33l14 8h41l111 -31l37 -69l32 -10l33 -142h-24l-23 -55v-33h-8l-25 -69h15v-31h-15v8l-8 14l-45 -47l-10 15l-133 -70l-47 25l-74 -25l-37 14h-18zM469 1237l55 70l86 -23l56 8h157l86 -63l-22 -111l14 -8h-14l-31 -70h-25l-30 -32l-99 -33 l-55 24h-22v9h-111l-22 47v174l-11 8h-12z" />
<glyph unicode="C" horiz-adv-x="1302" d="M133 590h10l15 -15l8 -120l45 -119l18 -23v-14l111 -129l37 -70l65 -22l64 -64l55 -32l55 -15l56 -18l37 -12l18 22l111 8l102 70l8 8h23l47 47l8 55l78 78l10 56l23 41l-9 14l41 88h-10l-8 8v33l-14 70l-23 63l-88 14l-78 -55l-18 -47l-15 -45v-64l-41 -55l11 -10 l-33 -45h-23l-47 -55l-166 -11l-63 66l-10 -10l-92 120v31l-31 55l-10 15v55l-23 33l8 330l25 153l45 92l10 56l55 16v25l13 12l65 43l23 22l22 -22l11 12h22l78 10l74 -32l36 -70l33 -41l-14 -12h-8v-10h22v10l23 -19l-15 -14l78 -33h103v23l41 24l14 72l-70 102h-32l-56 9 l11 14l36 65l-92 46l-63 -23l-11 8v15h-36l-33 55h-31l-47 -23l-63 -10l-66 33l-23 -33h-22l-55 33l-47 -45l-41 -10l-15 -33h-18v-23l-12 -14h-43l-23 -64l-33 -22v-43l-45 -45l23 -23l-23 -22l-33 -66v-45l-45 -153v-123l-10 -111l25 -18z" />
<glyph unicode="D" horiz-adv-x="1318" d="M135 575h12l56 -129l-23 -100l33 -47l-23 -88h-10l23 -55l-23 -78l33 -55l23 -64h10l30 8l25 -18h31h55v-12l102 30l64 -18l14 10h97l22 33h55l103 67h30l66 66l37 45h18l92 121l-14 8l78 147l10 111l23 33l-10 141l-13 80v197l-33 65l15 12l-47 43l-45 78l14 15l-80 108 l-141 111l-88 10l-37 33l-152 22l-47 8l-63 -30l-56 22l-47 -22h-63l-101 -25l-43 -41v-69l11 -86l8 -121l14 -56l-33 -77h11l8 -56l-19 -22l11 -10v-134l8 -8l-8 -78l22 -32zM410 1151h14l10 100l55 23l9 -12l14 22l63 -22h103l96 -97l14 9l31 -33l-8 -13l74 -110v-10 l14 -9l31 -110l-8 -203l-48 -55l33 -41l-33 -111h-8l-55 -133l-55 -33l8 -14l-64 -33v-22l-45 -8l-47 -11l-18 -22l-111 8l-45 25l8 8l-18 47h10l8 22v33l-8 8h-10l18 37l-8 88l23 78l-15 8l-8 232l-10 77l18 33l-8 78l-10 88z" />
<glyph unicode="E" d="M125 1055l14 -56l8 -14v-33l-8 -32l19 -78l12 -86l10 -111l-22 -55l12 -15l-23 -55h-8l19 -33v-77l12 -56l-23 -18l23 -78l10 -14l-22 -41l35 -56l-23 -55l-12 -88l45 -45l78 -55l22 22l33 -14l110 25l66 12l23 -23h22l55 41l41 -18l213 -12l86 30v25l25 31v102l-10 8 l-93 47l-8 -10h-65l-56 10v8l-14 -8h-22l-33 -10l-86 18l-33 -32h-14l-86 14v10l-11 -10l-45 55l13 11l-23 8v14l10 8v80l-10 133l23 41l-23 70l23 22l-13 9l23 24h33l86 8h78h110l103 56l8 55v70l-56 55l-8 -15l-22 33h-33l8 -10l-22 -23l-252 -10l-43 43l-23 45l10 78h13 l-23 80v141h78l33 -14h174l47 25l41 -25l70 25l22 22l10 -10l31 33l25 32l-33 64l8 14l-86 33l-25 -23l-22 23l-19 -23l-22 23l-102 8l-41 25v-10l-101 -15h-78l-79 -31l-31 31l-55 -8l-78 -47v-19l12 -12l-31 -88l19 -22l-19 -25l19 -31l-33 -96l22 -25l-22 -22v-8z" />
<glyph unicode="F" horiz-adv-x="1085" d="M123 1239l18 -252v-180l15 -41l-23 -23l8 -14l25 -33v-174v-102l-25 -23v-55l15 -8l-15 -10l-8 -111l23 -23v-133l65 -102l78 -8l63 45l37 43l19 100l-19 41l19 37l-19 18l11 78h8v33l-8 14l-11 64l19 24l-19 101l-12 73l-10 70l22 64h56v-9h18l23 -14l110 23l144 14 l14 8h33l45 10l-15 15l25 22h8v19l14 22l-22 23v22l22 33l-47 47l-165 19l-9 -11h-32l-46 23l-32 -31l-111 -14l-33 33v45l11 120v56l22 53h23v25l10 12l266 -12l19 -25l147 37l33 33l31 77l-31 43l-47 31l-56 15h-63l-33 -15l-22 25h-111h-88l-258 12l-96 -55l-23 -56h-10 l10 -45l8 -118z" />
<glyph unicode="G" horiz-adv-x="1449" d="M141 811l9 -14l14 -152v-110l31 -33l-13 -15l-10 -55l88 -221l-10 -8l24 -23v-33l41 -69l70 -55l174 -56l64 -8l157 -10v-12l23 22l41 -10l102 33l8 10h148l33 -33l22 23l55 -45l19 22l47 23l-10 10l41 67l-23 56l-55 73l14 15l-33 33l-14 77l-31 41l9 37v74l-9 70l23 30 l-14 33l14 14l-33 129l19 45l-33 88l-41 46h-111l-110 -13l-23 23l-55 -33l-15 10v13l-8 -13l-32 23l-78 -56l-33 -40l10 -48l-24 -55l14 10l55 -55l41 -18l70 -15v-8h33l32 -14l23 -41v-47l-10 -41l-13 8v-23h13l10 -8v-78l-10 -102l-93 -111l-8 15h-10l-37 -23l-8 -10h-33 l-14 10v8l-8 -8h-11l-55 23l-100 110l-8 -14l-25 23l-31 102l-14 63l-10 332h10l-10 88l33 45l-9 33l19 45h-10l-9 10l9 15l22 30v56l55 33l11 55h14l8 -8l45 41l121 12l45 -53l74 -47v-23l80 -33l100 -8l96 64v22l-18 33v45l-23 18l8 15h-22l-8 10v31l-78 69l-33 10v13 l-78 10l-120 55l-15 -10l-129 18l-22 -30h-78l-8 -10l-93 -23l-10 -47h-8l-37 14l-33 -22l15 -11v-12l-70 -80l14 -8l-24 -22l-12 12l-19 -100h-14v-56l-55 -110l14 -9v-24l-23 -31l23 -92z" />
<glyph unicode="H" horiz-adv-x="1353" d="M141 119l80 -103l-14 -30l69 -33h109l33 33l65 77l-10 142l-14 14l24 19v124v355l31 55l313 -14l41 -33l15 -188l-37 -119l22 -78v-66v-69l-8 -55l41 -97l103 -67h100l74 67l14 41h8l-8 180l31 66l-23 100l-8 152l-14 180l-9 307l23 88l-33 66v164l-22 24v31l-33 55 l-100 -8l-80 -65v-45l-56 -103l15 -108l-23 -19l33 -125l-111 -10l-32 -23l-15 11v12l-184 -12l-12 -11h-25l-63 48l-11 41l-12 14l23 18l-11 68l19 33l-8 10v78l-48 78l15 8l-33 80l-45 22v23h-33l-12 -23h-33l-41 -33l-47 -88l10 -12l-18 -96l18 -92l13 -88l-23 -23 l33 -43l-23 -23l13 -8v-47h-13l-10 -196l-33 -111l33 -33v-22l-8 -111h-14z" />
<glyph unicode="I" horiz-adv-x="692" d="M193 401l22 -24l-12 -64l22 -69l-10 -8l33 -48v-63l-15 -121l80 -92h31l78 25l55 77l-8 277l33 22v23l8 88l-18 22l10 9h22l-32 176l-23 55l23 23l-15 14l25 55l-25 19l15 14l10 53l8 121l-33 33l15 67h10l8 222l-41 143h-23l-24 45l-86 10l-47 -10l-41 -111l22 -55 l-37 -37h-8l-10 -108l43 -121l-25 -23l15 -133l-23 -18v-203v-111l-22 -32l12 -8l-22 -48l22 -22l-12 -10z" />
<glyph unicode="J" horiz-adv-x="1150" d="M127 225l78 -100l33 -88l69 -45l8 12h15l18 -37l68 -18l10 10l70 -33l55 33l8 -10v-12h143l101 55l55 12l66 55l45 74l10 70l22 166h9v32l-19 31l10 55l9 111l-19 55l33 56v77l-14 134l-9 10v14l9 8l14 144l-33 45l10 96l-32 55l22 25l-12 31l22 24l-22 45l-10 10v46 l-45 22l-66 10l-55 -22l-68 12h-143l-23 18h-98l-100 -18l-64 -37l-24 -63l32 -103l125 -55l152 37h110l46 -37v-31l-13 -32v-46l-18 -129l-15 9v-134l23 -22l-33 -66l25 -63v-70h-15l23 -8v-14l-33 -88l25 -64l-15 -110v-70l-55 -96l-88 -33l-45 33l-10 -15l-88 70l-31 88 l-37 23l-33 55h-32l-133 -55z" />
<glyph unicode="K" horiz-adv-x="1353" d="M141 143l33 -96l70 -92l63 -8h47l56 33l63 86l-8 14v22l-14 74l22 55l-22 48l14 100l-25 143l111 119l33 -33v-45l32 -33l15 15h8l55 -148l47 -55l-14 -8l68 -88l110 -189h25l74 -65l133 -23l86 78l-9 111l-110 151l10 15l-88 96l-10 55h-23l-8 14l-14 64l-56 10 l-110 148l-41 55l-37 18v101l23 22l14 -12l31 78l98 100l12 -12l25 22l41 78h22l111 156l55 65l-8 101l-37 43h-74l-69 -33l-10 -10h-31v-23l-70 -69l-143 -152l-101 -133l-65 -33l10 -12l-33 -33h-22l-33 -55l-22 22v121l-19 23v110l-14 15v86l-23 22l15 10l-33 134l-37 32 l-33 8l-110 -63l-31 -66l22 -67l-22 -166l-25 -111l25 -110v-111l22 -22l-22 -152h-10l-15 -276l25 -33l-25 -23l25 -22l-25 -25v-166z" />
<glyph unicode="L" horiz-adv-x="1054" d="M129 115l55 -111l68 -31l10 13l14 -13l31 -10l80 -22l41 22l23 -22l77 22l33 -14l189 -8l32 22h78l78 78l-12 10v55l-33 64l-47 37l-8 -14l-23 24v8l-10 -8l-33 31h-22l-45 -31l-99 8l-67 -18l-41 18l-15 -8h-10l-12 8l-19 47l-14 56v100l-22 33l-11 221v96h11v166 l-11 133l23 33l-23 166l33 53l-41 111l-14 14v23l14 10h-25l-12 8v14l-55 41h-33l-65 -18l-13 -23l-32 -69l-9 -64l-14 -33l23 -22l-9 -8h-14l14 -236l9 -110l-23 -78l37 -55l-37 -56l23 -96l14 -111l-23 -32l23 -258l-23 -19z" />
<glyph unicode="M" horiz-adv-x="1536" d="M131 193l25 -189l55 -55l86 -25l25 25l45 22v45l41 66l-23 22v23l14 10v119l-22 111l31 92l-23 18v45l23 144v110h-23l-8 15l-33 40l8 33l80 68l8 -12l37 -11v-30l33 -15l-14 -10v-23l22 -63l55 -47l-8 -33l41 -45l15 -65l30 -31l158 -25l55 47l19 41l67 144l80 133 l64 45l32 -31l-10 -133l-22 -102v-64v-70h-9l9 -151l10 -102l12 -9v-55l-22 -47l22 -31l-12 -47l45 -86l55 -43l10 10h46l77 33l23 109l-12 14l12 10h10l-22 23v41l22 92h8v33l-8 55l-10 221l-12 111l-33 63l22 111l-32 69l-13 9l68 133l-23 110l-32 33v33l32 31l-14 14 l-8 151h-33l-55 25v12l-23 -37l-45 37l-10 -12l-55 -25l-56 -110l-45 -19l-55 -108l-96 -180l-70 -133l-18 -11l-15 11l-55 77l-8 -10h-14l-41 66v55l-103 156l-8 10v55l-33 101l-55 40l10 15h-33l-47 33h-30l-25 -23l-31 23l-55 -48l-25 -63l-8 -156l-14 -88h-8l22 -22v-19 l-14 -14l-8 -244l30 -41l-22 -80v-155l14 -10l-33 -31v-78l33 -55l8 -11v-45l-30 -32v-47z" />
<glyph unicode="N" horiz-adv-x="1308" d="M127 193l14 -31l11 -88l45 -70l96 -18l102 73v47l23 23l-15 78v121l-8 86l-10 14v33l-14 41l24 37l8 63l-18 47l10 8l8 88l-18 56l33 69l33 -14l110 -143l8 -86l47 -70l23 -63l88 -177l86 -133l14 -88l33 -22v-70l31 -31l65 13l37 -37l41 14l111 33l-8 8l30 92l-8 10v101 l-22 65l-15 111l-10 8l10 15v8l15 133l8 221h14v55l-22 25l8 473h14v33l-22 100l-25 23v18l-45 25l-55 22l-88 -47v-31l-9 -43h-14v-37l14 -30v-88l23 -33l-14 -156v-110l-33 -64l10 -14v-10l-10 -31l24 -70l9 -151l-33 -33l-86 88v31l-47 47l14 33l-70 63l-8 47l-22 86 l-103 133v43l-55 45v33l-41 100l-47 78l-78 66l14 8h-22l-10 14l-111 11l-37 -43l-8 -93h-10v-30l10 -66l-33 -178v-121l23 -119l10 -14l-10 -133l-12 -152l-11 -55l11 -14v-33l-11 -41l-14 -125l25 -55l-25 -23v-32z" />
<glyph unicode="O" horiz-adv-x="1429" d="M133 737l23 -24v-133l32 -97l-22 -147l33 -64l55 -55l12 -47h33l8 -8l25 -56l55 -22l45 -80l55 -31h78l19 -24l243 -8l80 22l56 41l141 133l33 70l45 65l10 64l45 78l-8 32l18 78l15 189h22l-22 24v8l8 15l-23 33l23 55l-23 55l23 78l-41 86l8 10l-31 56l-14 14l14 8v10 h-24l-8 13l8 10l-31 45v33l-158 143l-30 12l-89 74l-180 14l-30 33l-56 -22l-88 -43l-65 10l-37 -33l-8 10l-88 -65l-33 -56h-23v-22l-78 -119l-8 -69h-14l14 -11v-22l-24 -23l-13 -254l23 -30zM387 627l12 30l-12 11v77l12 158l19 53l-8 11l22 22l-14 10l80 134v32l100 133 l133 31l10 14l56 -14l45 -31h18l37 -143l18 -45l15 12v-67l8 -43l33 -68v-110v-129l14 -78l-22 -47v-119l-25 -55l-31 -33l8 -37l-32 -41l-9 8l-32 -41l10 -14l-166 -78l-133 37l-98 121v63l-37 37v111z" />
<glyph unicode="P" horiz-adv-x="1216" d="M129 59l10 -14l45 -63l11 -15v-30l55 12l55 -45l78 100l8 41l33 221l-18 33l10 125l45 22l10 -14l64 33l14 -10h8l33 24l22 -24l47 -9l134 41l96 56l14 32l74 37l37 56l41 18l-8 14v9l40 69l-10 340l-8 10l-37 93l-121 86v22l-55 -22l-22 32l22 33l-22 45h-56l-33 23 l-45 -45l-8 8h-65l-23 24v13l-88 10l-14 -33l-64 10l-47 -55l-8 12l-78 33l-65 10l-13 -32h-10v-88l-45 -45v-310l12 -8v-14l-22 -88h-23v-23h8l15 -63l10 -56l-25 -79v-64l-18 -37l33 -41l-15 -102l-8 -207l8 -92zM406 764l10 22v33l55 55l-25 46l15 120l18 45v11l-18 22 l33 78l88 -12l100 -10h33v-23l41 -23h22v-43l47 -67l-55 -240l-78 -69l-47 -23l-41 37l-78 -47l-80 24v23z" />
<glyph unicode="Q" horiz-adv-x="1415" d="M145 827l23 -22l-10 -14v-420l18 -23l-8 -8v-33l45 -47l18 -78l37 -55l33 -8l23 -47l10 14l22 -33l66 -37l31 -63h79l23 -23l55 13l64 32l22 -22v-23h33l23 23l14 -10h18l37 43l97 -11l14 11l63 -25l-8 -8v-10h19l69 -13l23 45l-15 11l33 30h14l9 -8l32 45l-10 88l-31 23 l9 88l14 -14l33 124l22 41v56l41 55v37l-22 88l45 119l10 110l-55 88l-10 15l10 30l-19 78l19 43l-33 101l-33 47l-100 55l-33 64l-63 32l-70 31l-8 -8l-25 22l-96 23l-23 -23l-47 33l-110 -33l-64 -22l-14 -10h-64l-22 -45l-33 -9v-24l-10 -23l-68 -33v-55l-24 -22l-19 -33 h-22l10 -12l-25 -19l15 -14v-33l-56 -111l11 -8l-25 -22l-18 -70zM379 561l18 45l-8 119l23 55v88l10 70v18l12 -10l33 103l78 73l10 56l55 45l45 32l66 -22h45l121 -43l8 -55l47 -56l23 -55l22 -109v-110l19 -70v-18h-11l-22 -111l14 -37v-18l-14 10l-8 -33v-32l-47 -56 l-41 -37h-70l-55 -73l-23 -23l14 -14l-22 -33v-31l8 -10l-33 -45h-110v8l-23 23h-8l-10 -8l-45 41l8 14l-41 33v45l-14 10l-19 22v78z" />
<glyph unicode="R" horiz-adv-x="1308" d="M133 174l25 -22l-15 -46l56 -129l69 -22v-14h31l25 14h53l43 41l22 67l15 373l41 80l69 45l64 -22l22 -47l33 -64l10 -100l90 -154l-12 -12l86 -129v-56l37 -22h88l88 63l23 33h-15l-18 68v43h10l-22 22v78l-33 23v98l-23 23l13 12l-45 55v33l8 33l-31 63l45 25l23 45 l65 41v24l45 56l-12 12l55 55l-10 10l23 23v8v221l-13 15v41l-33 32l-22 15l-10 30l-45 103l-99 63l-12 -8l-66 41l-55 14l-33 -22l-12 8v14l-65 9l-45 24l-33 -24l-189 -9l-41 33v23h-55l-78 -47l-32 -45l-37 -97l37 -55l-37 -70l22 -18l-8 -14h-14l14 -78l8 -8l-8 -199 l41 -88l-33 -12l-22 -25l-11 -240v-67l-22 -25v-219zM475 870l37 31v25l-37 30l23 80l14 101l8 41l66 55l37 -8h118l11 8l108 -55l47 -64l-10 -102l-12 -56l-43 -55l-23 -22l10 -9l-110 -55l-78 8l-10 15l-8 -15h-111z" />
<glyph unicode="S" horiz-adv-x="1247" d="M131 328l23 -19l32 -92l15 -10l55 -133l74 -33v-23l12 15h10l125 -70l55 23l19 -23l233 -8l33 31h8l25 -9l22 19l101 55l55 92h19l55 64v188l-8 11l8 55l14 67l-47 121l-8 33l-33 12l-14 56l-41 18l-78 147h-23l-77 19v14l-121 23l-23 -23h-10l-23 23l-12 -15h-10l-23 25 v8h-41l-79 70l-13 151l23 70h14v31l31 24v64l24 22l31 -8l33 -78h33l22 -14v-10l23 24l96 -55l80 -14l22 -19l64 -14l92 -8l33 63l-47 33l14 14l-67 78l-89 19l-22 -19h-33l-22 8l12 11h18v36h-30l-33 -14l-47 -78l-19 23l-45 22v25h-45l-18 22l8 9v24l-78 -33l-55 -110 l-10 8v-23l-13 -8l-98 41l-68 -65l13 -56l-45 -53h-23l12 -33l-22 -143l22 -22v-23l99 -166h37l18 -33l147 -77v-11h31l55 11l66 45l31 -23l14 -33h23l10 -12l8 -33h37l43 -102l12 -96l-55 -156l-92 -66l-8 11l-56 -33h-55l-55 47l-33 -14l-45 32l-55 101l-56 63l-55 25 l-33 12l-86 33l8 -14l-8 -9l-33 -22z" />
<glyph unicode="T" horiz-adv-x="1067" d="M84 1321l55 -74l103 -14l63 33l156 -33l24 -78l-24 -63l24 -33l-36 -111v-155l22 -25l-10 -8v-23l-12 -43l22 -37l-22 -18l12 -12l10 -56l-22 -32l-11 -66l23 -22v-23l-23 -45v-199l-22 -41l22 -24l-8 -13v-18l-14 -92l78 -88h47l18 -23v-10h23l88 88l45 111l8 55l-16 14 v19l8 100l-23 23v43l31 90h-8l-8 10v33l-15 31l31 24l-8 12l-8 177l-25 22l33 66l-33 30v47l25 119l8 55l-23 48l23 45v55l55 63l8 25h25l12 -14l19 22l36 23v55l19 25l14 -15h10l23 23l33 -33l22 55l-102 11l-19 -33l-67 -8l-66 63l-45 -22l-10 -33l-12 -78h-56l-10 37h-33 h-67v8l22 47l-32 8l-56 -78l-32 23v33l10 14h-23l-110 -55l-41 33l22 22v55h-22l-56 -55h-32l-48 -37z" />
<glyph unicode="U" horiz-adv-x="1282" d="M139 346l33 -110l68 -142l65 -47l-10 -8l41 -37h47l33 -33l55 15l31 -23l80 -14l155 -10l33 24v41l141 14l15 9h32l64 133h33l45 78v98l47 92l8 119l-45 33l-18 77l32 64l-14 203h-18l-15 -15l-41 47v23l-55 74l33 36l55 97l-22 24v56l22 45l8 55l-8 8l-22 66l8 14 l-19 64l-45 14l-33 -70l-22 -33v-77l-25 -33l25 -78l-33 -22l8 -9v-55l25 -47l8 -8l-8 -66l-10 -92l10 -8v-33l-10 -100h-15v-33l70 -47v-19l-45 -12l-33 -55l-14 12v-67h-8v-33l-11 -33l-14 -123v-55l-111 -154h-118v-12l-45 -10l-80 78l-8 43l-11 -11l-22 23v10l10 14 l-25 31v98v211l15 33l-33 31l33 110l-23 37l33 74l-10 55l22 37l-12 10v119v70v141h12l-22 47l22 19v14l-37 31l-30 24v31h-43l-13 -8h-65l-68 -78l-10 -199l-8 -77l-14 -78l22 -33l-8 -14l-14 -33v-64l-23 -254l12 -92l-22 -18h-8v-37l8 -86z" />
<glyph unicode="V" horiz-adv-x="1318" d="M129 1370l31 -41l24 -102l9 -8l14 -125h22l11 -97l45 -69l-15 -56l33 -55v-63l23 -11l32 -92v-55l37 -64l19 -10l-11 -35l25 -55v-110l31 -74l-8 -15l88 -253h22l8 -9v-22l66 -15l55 -32l148 47l55 55l8 109l23 43l10 110h14v123l19 25v41l22 22l-10 10l33 123l10 78h12 v33l10 22h15l8 74v103l23 22l10 8l14 103v110l31 41l-31 47l8 9h8l15 110h10l12 23l-22 32l33 101l-11 10l-22 -18l-23 18h-100l-10 -10h-33v-23l-23 -22l-22 -33l22 -33l-22 -22l14 -9l-24 -24l10 -8l-23 -23l13 -14l-23 -19l-22 -110l-23 -45l-18 -135l-25 -56l-45 -63 l14 -15v-41l-14 -32l-10 -92l-31 -64l-14 -47l-41 -8l-23 78l-14 10v45l-41 78l8 55l-33 88l-22 8v15l14 10l-22 22l-47 64l-9 80l-24 166l-8 8l-48 133l-63 78l-55 33l-70 14l-86 -55v-148z" />
<glyph unicode="W" horiz-adv-x="1841" d="M102 1427l23 -24l18 -174l23 -45l-8 -10h-15l23 -23l47 -111v-55l23 -22l-23 -78l41 -80l14 -74l8 -12l25 -144l23 -22l-15 -10l45 -68l-8 -10l41 -133l23 -23l-9 -10v-33l19 -86l69 -92l9 -10l32 -78l45 -41l11 8h55l37 -8l41 33l14 -15l19 23l55 102l37 86h8v66l47 68 h-14l-11 10l11 45h14l41 -45l14 -96l19 -134l55 -69l146 -88l129 -8l24 22l45 74l-22 37l22 63l41 47l14 119l41 66l-8 36l33 56l12 41l74 321l37 33l18 88l37 78l-14 8v70l24 32l23 119l33 56v69l-11 78l-14 8l25 25l-33 78h-33l-37 32h-18l-92 -24l-41 -31l-33 -70 l-45 -143l-66 -151v-101l-36 -47l14 -8l-70 -144h-8v-32l8 -13l-18 -55h-12v-80l-56 -18l-10 10l10 8l-33 25v55l9 55h-17l-14 13l14 10v33l-14 -11l-55 66l-11 78l-22 22l10 9l-18 24l8 8l-33 47l10 9l-41 22l-55 15l-92 -37l-66 -152h-8v-78l-47 -55l10 -10l-18 -23h-14 l-23 -88h-18l-15 10v9l-22 102l-11 33l-22 30v78l-23 25v31l15 14l-25 18v78l-22 25l-9 78l-79 96l24 22v33l-69 125h-19l-14 8v23l-41 47l-23 -14l-14 -9l-74 23l-14 -37h-31l-33 -55v-97z" />
<glyph unicode="X" horiz-adv-x="1439" d="M104 80l103 -111h151v23l15 10l55 33l-14 12l67 111l99 176l67 55v31l55 69l56 -22l80 -125l-15 -8l45 -88h23l10 -15l-10 -8l43 -47l12 14l55 -77l89 -133l65 -33l45 33l23 -25l73 25l47 133l-88 155l-125 144v32l-40 78l-46 31l13 10l-68 78l-10 14l-45 56l-10 73 l96 189l55 69l47 74l8 37l15 31l33 10v33l8 22h24v33l13 12h10l8 33h14v143h-22l-33 23l-14 33l-56 22l-40 -47l-46 -8l-153 -158l-23 -53l-110 -143l-45 -11l-33 33l-55 47v31l-23 55l-78 56l-32 55l-89 78l11 10l-97 63l-88 -40l-36 -33l-11 -56l25 -22l-14 -14l36 -97 l56 -67l-15 -10v-9l56 -47l55 -110l14 -9l33 -79h31l55 -86l10 -103l-43 -63l-12 -47l-41 -86l-33 -15l-78 -110l-88 -111l9 -8l-64 -55v-48l-55 -55z" />
<glyph unicode="Y" horiz-adv-x="1286" d="M111 1348l32 -37l23 -64h18l15 -8l30 -102l66 -64l55 -102l70 -101v-32l8 14l70 -111v-125l32 -88l-24 -108v-144v-88l24 -55l9 -100l55 -88l88 -15l45 25v22l47 64l31 133h10l-10 125l24 18h9l10 156h12l-12 166l22 47l-22 33l55 110l45 23v31l33 32l14 66l41 55l56 123 h12l10 80l55 72l-10 14v10l19 78l-56 55l-8 -10l-22 19v14h-25l-8 -14l-23 24l-55 -10l-78 -143h-18v-23l8 -14l-23 -19l-10 11v-33l-12 -13l-10 13h-9v-31l-36 -47v-33l-19 -22l-55 -101h-25l-67 45l-41 103h-25l-45 30l-10 11l-23 78l-41 45v32l-36 11l-56 86h-33l-88 55 l-86 -41l-22 -45l8 -55z" />
<glyph unicode="Z" horiz-adv-x="1308" d="M139 109l80 -78l-10 -15h22l43 -8h109l55 -22h80l78 -25v-8h63l56 22l14 -14v-8l229 -10l33 32l70 -22l41 45l14 -12h8v22l-8 8l33 37l22 33l9 64l-31 69l-55 33l-103 8h-96l-111 33l-147 -33l-41 33v69l33 33l-11 31l66 102l-10 9l33 55l41 110l77 111l23 70l47 41 l-14 14v8l32 23l-10 10l55 125h11l45 86h-8l-15 10l33 33l14 -10l31 65l66 78l-11 12v99l-45 86h-55l-33 36l-133 -12l-65 -33l-31 33h-14l-41 -10l-89 -14l-165 24l-56 -24l-37 36l-63 -36l-66 -41l-12 10l-33 -43l23 -92l41 -54l69 -32h318l37 -33l-37 -78l-8 -55h-11 l-22 -41l8 -55l-55 -56l-55 -110v-47l-31 -31l-10 -55l-78 -103l-15 -63l-30 -25l-25 -63l-41 -70l-14 -64l-31 -32v-37l-33 -33l9 -41l-41 -55z" />
<glyph unicode="[" horiz-adv-x="823" d="M100 74l33 -45l-10 -97l33 -55l-23 -24l12 -31l-22 -25l22 -45l11 -10v-45l45 -23l65 -10l56 23l67 -13h88l23 -18l67 -6l101 18l63 37l25 64l-33 102l-88 25h-103h-110l-45 36v31l12 33v45l-12 129l14 -8v133l-22 22l32 66l-24 125v70h14l-22 8v14l32 88l-24 180l14 185 v69l12 97l52 32l69 -2l68 -8l49 -4l59 12l54 43l4 88l-23 76l-57 29l-68 6l-92 4l-43 -14l-51 22l-102 -18l-105 -6l-53 -74l-33 -86l14 -100l-22 -166h-8v-107l18 -31l-10 -55l-8 -227l18 -55l-33 -56v-139l15 -133l8 -10v-15l-8 -8z" />
<glyph unicode="\" horiz-adv-x="800" d="M35 1524l10 -56l12 9l11 -101l32 -96l-10 -78l33 -33l14 -77l41 -56v-10l-10 -14l65 -97v-45l46 -55v-47l24 -18l-24 -45l24 -111h8l11 -47l45 -86l22 -25l-22 -30l22 -56l55 -41l-14 -14l37 -23l-23 -98l33 -12l23 -43l-15 -31l37 -25l-12 -12l31 -74v-36l55 -33l92 14 h33l10 55l31 31l-64 191l-32 55v8l10 10h-10l-15 123l-30 23l-11 18v37h-14l-8 33v33h-10l-13 45v32l-43 41l-37 56l-73 133l-56 80h-22l-31 63v15l8 8h-8l-24 24v101l-31 18l-15 70l-77 96l37 37l-15 74h-10l-23 22l11 14l-33 9l-10 32h-31l-25 33z" />
<glyph unicode="]" horiz-adv-x="823" d="M72 -211l22 -76l58 -28l67 -7l92 -4l43 15l52 -23l102 19l104 6l54 73l32 86l-14 101l23 166h8v106l-19 31l11 55l8 228l-19 55l33 55v139l-14 134l-8 10v14l8 8l14 144l-33 45l11 96l-33 55l22 25l-12 31l23 24l-23 45l-10 10v46l-45 22l-66 10l-55 -22l-68 12h-88 l-22 18l-68 7l-100 -19l-64 -37l-24 -63l32 -103l89 -24h102h111l45 -37v-31l-13 -32v-46l13 -129l-15 9v-134l23 -22l-33 -66l25 -124v-70h-15l23 -8v-15l-33 -88l25 -180l-15 -184v-70l-12 -96l-51 -33l-70 2l-67 8l-50 4l-59 -12l-53 -43z" />
<glyph unicode="^" horiz-adv-x="1013" d="M10 1073l15 -4v-18l96 -41h78l8 2h37l65 28l8 15h15v14l33 14v19l55 69h8v15l-8 4l33 29h12l-12 4v10l30 14l47 15l33 -15v-24l23 -9l30 -10l-22 -8l14 -33l8 -6v-37l25 -18l-10 -29l41 -22l-8 -7v-4l32 -18h23l8 -12h47l55 -21l33 8l8 -4l103 39l-10 60l-45 65l-33 62 l-56 47v24l-55 23l8 51l-30 29l-11 18l19 10l-8 4l-47 37l-9 17l-80 30l-108 -24l-80 -31l-31 -6v-10l-80 -27l15 -18l-56 -19v-20l-32 -17l10 -6l-23 -33h-10l10 -4l-32 -14v-14l-45 -47l12 -5l-55 -51h-13l13 -14l-23 -10l-22 -33l-41 -10v-9l8 -4z" />
<glyph unicode="_" horiz-adv-x="798" d="M-16 -160v-88l55 -47l88 -12l135 12h82l49 -16l53 8l99 -33l26 33h56l86 8l32 37l48 65l-15 56l-10 55l-55 8v23h-45l-11 -8l-77 -15l-23 -18h-33l-22 18h-41l-96 13l-70 -13l-117 13l-84 -21h-55z" />
<glyph unicode="`" horiz-adv-x="638" d="M78 1395l67 -111l99 -70l37 -86l86 -43v-22l88 10l45 68l10 -13v23l22 45l-32 96l-56 33v47l-36 23l-9 41h-45l-143 47l-41 -10l-80 -46z" />
<glyph unicode="a" horiz-adv-x="1271" d="M133 528l55 -141l13 -125l32 -63l33 -33l56 -92l45 -33l77 -41l33 8l23 -22h98l109 22l47 25l63 8l25 -23v-10h63l47 -45l9 14h14l55 9l64 55v70l-23 18v45h14l-22 111l-80 47l-8 151l22 23l-14 55l33 103v86l55 165h23l-9 11l31 30v56l25 37l-25 55h-63l-23 18h-110 l-23 -30h-47l-88 55h-55l-64 -55l10 -11l-32 -32h-11l-78 32v11l-55 12l-55 -23l-23 -32l-10 10v-23l-78 -43v-67l-67 -66v-55l-56 -55v-31l13 -25l-23 -22v-8l10 -56l-32 -80h-23zM455 483l22 70v119h23l18 110l70 119l88 37v-23l63 -32v-23l37 -33l-14 -108v-135l-8 -101 l-15 -41l-8 -36l-10 -11v-22l-14 14l-23 -37l-41 15l-100 -80h-25v47l-8 8l-23 47l-10 41v14z" />
<glyph unicode="b" horiz-adv-x="1171" d="M127 41l47 -78l88 -18l119 55l70 -23v-14h30l25 -8v-10h55l8 10l56 -10l47 32h41l55 41l86 45l25 48l55 63l-10 10l32 23v55l56 88l-11 15v8l19 55l14 199h10v67l-10 11l-14 110l-64 55v45l-47 56l-73 78l-13 -13l-43 68l-22 -23l-33 23l-53 -23l-56 33l-102 8l-22 56 h-11l-12 102l-10 55l-8 119l-15 55l-10 56l-55 14l-31 -55h-55v-23l-15 -10l-8 -55v-93l-24 -73v-56l-23 -22v-14l14 -9l-22 -22l8 -43l-22 -45v-47v-152l-19 -22v-56v-63l19 -25l-19 -22l8 -78l-22 -199l-8 -100l-15 -88v-64l15 -47zM426 451v10l25 22l-15 15l23 30v232 l88 100l33 10l22 -24l14 37l74 -37v-41l45 -45l-10 -33l10 -8l23 -47v-8l-15 -15l25 -22l-10 -88l-15 -56l-30 -65l12 -12l-45 -97l-64 -80l-14 11l-10 -11h-55l-56 66l-30 78l-15 69z" />
<glyph unicode="c" horiz-adv-x="1040" d="M121 584l24 -68v-74v-110v-70l45 -63l11 -33l22 -23l-10 -55h18l103 -102l55 -9l23 23h22l55 -45h177l30 31l15 22l55 25l10 55l78 78l-14 8l22 55h15l32 66l-24 37l24 63h9l-33 56l-8 10l-93 55l-18 -18l-37 -56h-18v-69l-37 -64h-19v-24l-14 -9h-23l-110 -69l-55 22 l-19 -22l-22 22l-33 103l-12 8l12 25l-21 139l9 145l67 133l96 101l48 -37l8 14l69 -45l-14 -10v-31l102 -125l41 -10h70l23 25l-15 8l47 65v133l-24 23v63l-86 93l-56 18l-77 47l-144 -78l-22 13l-11 -13h-22l-14 13l-56 10l-118 -70l-43 -104l-78 -80l10 -68z" />
<glyph unicode="d" horiz-adv-x="1120" d="M125 410l18 -23v-10l37 -64v-47l33 -30l23 -80l40 -78l70 -33v-8h33l33 -14l86 -31l102 22l8 9l23 32l65 -18l23 18l22 -18h33l55 -55l56 10h55l55 31v88l-41 36l-14 33l-22 8v33l12 15h10l-22 22l12 8v10l-23 56l23 45l-12 10v92l-19 41l19 23l-11 10v12l33 43l-10 13 l24 24l-14 152l23 30l-23 148l23 33v41v69l10 56l12 88l-55 63l33 55l-9 37l-24 -22l-12 8h-19l-47 47l-31 -23l23 -47l-47 -96l-9 -70l-22 -55l41 -110l-19 -19h-14l-55 55l-111 -12l-8 -10h-33v10l-166 23v-11l-92 -36l-96 -119l-23 -103h-10v-53l-37 -33v-32l15 -9 l-15 -221h-8l8 -47zM356 498l23 22l-14 199l36 45v33h19l14 30v37l133 88l19 -22l14 8h23l8 -74l47 -45v-174v-102l8 -8l10 -48l-55 -110l-33 -55l-41 -31l-125 8l-30 33v78zM608 993l23 56l33 -9h22v-55l10 -10v-23h-18l-23 41h-47zM788 883v47l33 -10v-23z" />
<glyph unicode="e" horiz-adv-x="1146" d="M127 543l23 -64l-15 -24v-68l47 -151h8l23 -56l55 -69v-33h25l100 -64h33l55 -22h111l22 -25l88 25l41 22l45 41l56 37l65 64v32l45 56l-55 133v55l55 33l11 33l36 45l9 55v111l-9 47l19 30h-19l-14 11l14 30l-36 80h-19l-69 111l-56 22l-55 9l-143 55l-9 -8l-55 22 l-156 -69l-10 -9l-69 -77l-9 12h-22v-23l-25 -55l-96 -133l-12 -156h-10v-18l-15 -15zM434 786l70 97l10 14l45 23l88 -13l31 -55v-88l-31 -23l-55 45l-111 -22h-22zM449 432l96 33l125 -23h18v-10l23 -22l14 14l-37 -47l-33 -31l15 -14l-23 -41l-78 22v9l-24 24h-78v8 l-8 15z" />
<glyph unicode="f" horiz-adv-x="755" d="M109 -55v-33h10l22 -23l-10 -8l-12 -47h22l9 -8v-33l92 -14v-8l43 55l-11 8l134 14l41 64l32 143l15 78v111l22 47l-14 8v111l14 32l10 56l-24 22l-8 125l41 74l-9 12v10l45 70l95 31l-9 10l27 78l10 33l-24 22l14 55l-37 23l-82 27l-8 69l14 15v96l56 69l-15 9l33 47 l-33 32l15 9v14l10 33l-66 30l-36 -8v-22l-9 -10l-102 10l-41 -33v-55l-45 -47l-25 -56l-18 -133l10 -8l-10 -47l-102 -41v-10l12 -15l-37 -55l-10 -127l100 -59l25 -41l12 -15v-32l-12 -23v-121l-33 -67l22 -19l-22 -47l-10 -55l-13 -64l23 -180l-23 -96z" />
<glyph unicode="g" horiz-adv-x="1155" d="M127 653l10 -188l8 -10l15 -54l96 -125l23 -88l-64 -63v-80l-25 -22l-8 14l-14 -45l33 -47v-74l22 -23l-8 -14l78 -63l96 -25l33 -31h55l23 -24l14 14l86 19l43 36l111 19l100 55l10 37l37 41l19 70l55 73l-19 23l31 33v188l-12 188l22 78l23 199l8 100l-18 33l18 41 l-18 25l10 67l-45 98h-19l-14 -10l-22 23h-11l-32 -23h-156l-143 41l-46 -18l-198 -56l14 -12l-110 -98l8 -12l-23 -25h-8v-18l-14 -23l-41 -111l8 -12l-31 -43l8 -55zM381 565v56l31 24l24 86l23 66l55 45l18 41l56 -9l100 -77h10l13 14l-13 -246l-32 -123l-97 -32h-14 l-8 14l-15 -14v-9l-40 23l-15 -14l-55 45l-19 65l9 15zM444 70l23 41l166 -33v-64l-8 -22h-70l-8 -10h-33l-47 41l10 14z" />
<glyph unicode="h" horiz-adv-x="1040" d="M121 276l10 -276l199 -8l55 119v221v78l12 32v45l25 78l-14 10h-11l-12 144l23 55l-11 12l25 25l-14 8v8l14 15l-37 41l23 37l14 -13l41 -33l12 9l88 37l33 18l63 -55l37 -72l-12 -47h-10l-23 -45l33 -55l-10 -11v-55l-23 -23l-10 -188v-151l-23 -25v-23l23 -143l55 -45 l74 14l47 -22l55 31l9 157v133l22 41l15 244l-46 88l23 23l-14 10l37 22l-46 70l-47 127l-30 25v-11l-11 -14l-55 -8l-14 110h-19l-12 -22h-10l-56 -66l-32 23l10 88h8v22l14 11h-45l-10 8h-45l-80 92l-30 10l14 56l-37 100l-33 -14l-33 32l23 56l55 37l-12 73l-43 15 l-78 -33l10 -111l37 -14l8 -111l-45 -63l13 -15v-110l-56 -41v-33l11 -55l100 -45v8l43 47h23l14 -10l-25 -78l-55 -33l-23 19l-8 -9h-14v-32l-10 -31h-45l-33 -37l-23 -33l15 -77l-25 -19v-47l-31 -33l9 -12v-43l32 -31v-37l-10 -10h-22l-9 -78l-14 -78h-10z" />
<glyph unicode="i" horiz-adv-x="624" d="M102 258l11 -235l30 -31l47 -25h64l92 15l66 63v213v197l8 153l-19 101l-12 10l12 12h11v309h-66l-67 23l-43 -33l10 -12l-23 -25l-33 -63v-111l-22 -45v-143h-10l-15 -152l-18 -78l-12 -79h-11v-64zM236 1380l43 -88l122 -41l66 56l31 65h24v31h-10l-14 14l14 10v9 l-78 77l-110 15l-56 -23v-32l-32 -23v-70z" />
<glyph unicode="j" horiz-adv-x="686" d="M74 -111v-63l30 -66l48 -36l32 -41l31 22l33 -22l100 41l111 69v23l10 32l33 9l-10 55l22 25l-12 8v14l22 197l15 387h8l-8 78l-15 253l-65 134h-23l-8 10l8 12l-100 10v-32h-19v-23l-14 -10l-22 -92h-11v-64l-22 -22l22 -97l-22 -110l22 -25l-8 -12v-221l8 -56l-32 -88 l10 -77l-23 -41l-129 -125l8 -33l-22 -23h-8zM270 1251l56 -100l88 -47l45 24l55 78l33 78l-33 55l10 9v14l-41 41l9 14v10l-119 9l-56 -56l-24 -73h-12l12 -15v-8z" />
<glyph unicode="k" horiz-adv-x="1185" d="M129 203l23 -47l14 -9v-36l-14 -19l22 -110h23l65 -37l55 -8l70 30l55 47l9 31l8 33l14 143l-22 23l-9 102l72 133h25l55 -24v-54l31 -69l24 -66l111 -221l31 -22v-31l24 -33h31l22 -14v-19h80l56 19l45 55l10 100l-10 11l-15 69l-110 111l14 8l-100 156l-11 10l-55 125 l-12 55l22 55l33 9l53 88h25l8 55l70 12l8 33l14 78l-55 74h-37l-86 -9l-80 -55l-141 -65l-55 -78l-56 -23l-10 8v37l10 19h13v37l-23 18l10 37l-24 166l-17 18l-14 70l31 33l-8 8l-23 37l-10 151l-101 25l-41 30l-36 -22l12 -88l24 -41l-36 -78l-11 -166h-22l14 -125 l-47 -86l10 -254l-18 -88l31 -133l-45 -45v-33l14 -41l-25 -47l11 -30z" />
<glyph unicode="l" horiz-adv-x="624" d="M102 731l33 -31v-47l23 -32l-15 -142l25 -55l-25 -23l37 -102l-22 -133v-55l32 -19l9 -133l69 -47l11 -31l155 -10l78 66l-14 8l24 37h-10l-14 10l14 63l-68 92h-43l-36 33l14 8l-23 23v33l9 55l14 88l-23 23l9 14l14 41l-23 22l-10 66l19 45l-19 47l10 8v56l9 118 l36 148h11v33l-23 88v174l-24 69l14 9l-33 32l-55 93l-23 -23l-14 -55l-74 8l-22 -64l22 -77l-37 -56l-8 -65l-10 -45l-23 -299l23 -23v-10z" />
<glyph unicode="m" horiz-adv-x="1587" d="M147 -8l13 -10l10 -37l70 -41l8 8l55 -23v23l33 14l55 56l12 55v295l33 37l-14 55v74v45l-8 88l88 143h30l70 12l64 -67v-88l14 -10l-37 -31v-37l14 -33l23 -10v-68h-14l24 -41l-10 -14h-14l14 -10l10 -45l-24 -33l24 -96l-33 -47l9 -78l14 -8v-25l-14 -31l24 -32 l-10 -15l33 -63l143 -15l45 56l19 69l-9 9l-10 14v33l10 118l-24 56l24 78l9 79v299l36 56l19 86l47 -45h45l33 -33l8 10h14l56 -18l8 -203l10 -10l-33 -64l15 -37v-65h-15l15 -211l18 -19l-33 -133h23l10 -14l-10 -41l24 -33l9 -14v-8l77 -23l88 45l23 66l10 78l15 63 l-25 23l10 80l23 40l-23 23l-10 78l25 65l-25 211l-23 23v55l-22 25l-66 41l-45 30l-18 56h-55l-15 47l-8 -10h-14l-33 18l-8 -8l-56 -47l-22 24v13h-55l-47 18l-97 -18l-32 -37h-37l-9 14l9 10h-33l-8 13v10l-23 -23l8 -10l-32 -33h-9l-69 -12l-31 22v33l31 23l-31 -10 l-65 32l-56 -32l-88 65h-37l-30 -33l-56 -14l-10 -96l-22 -23h-9l9 -8l-33 -111h-13l23 -36l-23 -19l23 -24l-23 -23v-111v-86l13 -55l-13 -24l23 -23l-10 -33l24 -22l-14 -8h-10v-191v-53h-13z" />
<glyph unicode="n" horiz-adv-x="1085" d="M123 14l55 -65l88 -8l41 18l15 14l10 -14l45 100l-23 33l23 23l-15 55l25 47l-25 31l25 24l-10 31l-15 10v33l15 78v68l22 18v25l-12 100l23 22v11l-23 22l12 10l19 56h14l64 123l102 -37l33 -19l55 -100l-10 -10l18 -23v-14l-18 -19v-45l18 -65l-18 -23l-14 -243l-9 -56 l23 -45l-23 -43v-164l56 -69h133l55 45l18 78l37 190l-37 64l15 10l22 92h9v31l-9 10v78v198l-14 13l-8 151l-15 -8l-63 64l8 14l-41 33l-78 32l-55 9v14l-65 8l-23 -22l-55 22v14l-33 -45l-14 9v-19l-23 -22h-18l-37 -15l-19 23l-45 69h-32l-56 11v8l-33 -33v-31l-36 -24 l-9 -96l-32 -68l-15 -199l-18 -32l10 -15l23 -141l-33 -41l18 -37l-18 -33l18 -120l-18 -23v-156z" />
<glyph unicode="o" d="M125 492l33 -78l-25 -23l37 -96l-12 -55l22 -148l23 -55l8 14h14l74 -78l111 -24v-8h36l19 -15h133h47l64 47l14 -10l18 19h15l41 77h22v47l78 78v64l33 80l47 96l-14 12v135h14v19l-14 12l-11 66l-8 69l-14 56l-8 8l-15 45l-10 10l-45 111h-18l-15 8h-41l-147 69l-74 11 l-37 -25l-8 14l-102 11l-41 -43l-23 -37l-102 -64l-56 -133l15 -33l-33 -45l10 -10l-47 -143zM322 547l47 88v78l8 -13l33 56l133 78l78 -23l55 -66l10 11l23 -43v-299l-9 -64v-47l-14 10l-55 -88l-41 -41l8 -14l-55 -8l-8 -15l-70 23h-8l-11 -8l-22 22h-47l-8 9l22 24 l-55 78l10 74l-10 14z" />
<glyph unicode="p" horiz-adv-x="1171" d="M127 -248l18 -10l70 -8l41 30l14 -12v-10l56 10v23l8 14h33v31v88l47 65l30 13l33 -23l111 -22l92 14l10 8h8l23 -8l70 41l63 22v9l25 55l8 14l14 23l74 121l-10 32l-9 13l9 10h10l-10 33l24 22l-14 8l37 25v31l8 147l24 33h-14l-10 8l10 33l-18 14v56l-47 77l-31 11 l-70 53l-10 -8v-15l-63 -30l-15 -11l-22 19v14l22 23l15 -15v33l40 55l-8 15v30h-24l-45 -55h-19l-14 10l-23 37l-8 -14h-33l-55 47l-78 8l-24 -22l-86 22l-47 -22v-33l14 -8l-33 -33l-14 -14h-31l-10 14v-55h10l23 -56l8 -14v-31l-8 -10l-70 -22l25 -23l-11 -10v-23 l-22 -102l-33 -31l-22 -55h-11l33 -111l-14 -22l102 67l55 -45v8l23 25l-23 23l9 8v14l22 55h25v23l22 88h8v33l-8 8l56 102l143 109l108 -53l11 -33v-125l37 -55v-56l32 -88l-24 -22h-8l-15 -64l-33 -65h-22l-31 -68l-55 -24h-111l-32 14l-56 78l-133 10l-47 -33l-63 41 v-18l-33 -45l10 -11l-33 -36l23 -19v-12l-23 -121z" />
<glyph unicode="q" d="M125 461l22 -25l-8 -8v-22l31 -56l-12 -10v-12l45 -121l8 -78l55 -33l37 -8v-14l66 -11l32 -55l31 -31l47 -14l23 23l10 -9l68 -14l18 23h14l56 -31v-102l22 -41l-22 -23l8 -14l24 -56l45 23l66 -55l63 47l23 55l14 119l-37 55l15 14l33 19l8 67v121l14 322v65l23 23v22 l-15 11l-8 55l33 86l-80 133l-111 70l-86 10l-55 -33l-10 8l-55 33l-56 -33l-22 -30h-23l-10 8l-45 -19l-55 33l-23 -22l-10 8v14h-23l-32 -47h-45l-25 -63l-31 -33l13 -12v-11l10 -45l-33 -32l-31 -103l8 -86l-22 -24v-31zM346 395l23 66l45 22v174l55 80l18 68l37 41 l66 -8l22 -33l-14 -12l23 -80l69 -64v-55l-14 -10l33 -37v-55l-33 -41l-8 -156l-56 -23l-32 -55l-13 12h-10l-22 -22l-89 55l11 10l-80 111l-8 12h-23z" />
<glyph unicode="r" horiz-adv-x="954" d="M119 162l22 -154l133 -86l74 8l-10 11l102 77l9 267l24 110l8 88l-22 119l92 158h55l41 -47l15 14h8l78 10l24 31l64 133l-9 -8l-14 8v25l14 8l-69 92l-88 33l-64 -33h-110v10l-47 8v15h-9v-15h9l-56 -8l10 -10l-41 -37l-47 -8l-22 55h-10v-24l-56 -56l-63 -188l-14 -111 l-9 -110v-141l-22 -23v-111v-110z" />
<glyph unicode="s" horiz-adv-x="1060" d="M123 207l22 -23v-65l66 -78h22l64 -100l14 14h11l53 -33l166 -37l24 23h56l77 22l-14 11l23 22l24 70l8 -15l78 56l23 100v154v133l-56 67l-22 11v45l-45 10l-66 33l-8 -11l-111 111l19 23h70l86 -68l102 -10l111 78l-15 10l33 63h-10l-8 15l8 8v47l-33 55l-141 96 l-203 37v11h-19l-47 -33l-77 8l-23 -23l-10 15l-86 -55l-47 -70h-23l-33 -96v-156v-55l88 -144l15 9h8l25 -56l63 -18l45 -35l80 -33l96 -10l23 -68l14 -10l-14 -8h-23v-47l-33 -33v-12l-88 -10l-86 88l9 88l-33 37l-53 30v23l-89 -12l-77 -41v-48l-25 -32l14 -13z" />
<glyph unicode="t" horiz-adv-x="661" d="M78 793l22 -33l58 -23l22 -231l-22 -78l-11 -365l43 -67l13 -10l-13 -9l37 -22v-25l64 -8l102 -47l131 55l23 121l-33 37l-102 86l37 43l-15 45l23 47l-8 8v166l-25 45l25 19l-15 14v23l-10 65l127 64l41 55l22 102l-22 23l-64 82l-61 6l-18 78l8 8l-45 188h-33l-23 33 h-32l-66 -41l-45 -55v-133l-121 -133z" />
<glyph unicode="u" horiz-adv-x="1161" d="M127 500l10 -11v-45l23 -98l-23 -67l56 -56l12 -88l74 -88h36l97 -78h32l78 15h103l96 41l78 -41l133 -15l47 23l-14 10l32 37l15 8l22 33l-14 47l-8 8v45l-56 66l-14 243l23 23l-23 25v8l-10 88l24 78v100l23 18v103l18 22l-10 88l-8 64l-70 70l-96 22l-100 -37l-11 -55 l-55 -74l19 -22l-9 -15l-10 -196l19 -43l-19 -23l19 -33l-9 -12v-221h-10v-41l-100 -147h-88l8 12v10l-23 23l-8 110l23 47l-23 41l23 45l8 97l14 36l-37 33v33l15 22l8 230l25 24l-11 9l11 14v8l-48 70l-55 41l-55 24l-64 9l-55 -41l-22 -33l-11 10l-8 -10l12 -8l7 8 l-11 -15l-14 -77l-31 -19v-37l13 -41v-55v-78l-23 -102l23 -197z" />
<glyph unicode="v" horiz-adv-x="1222" d="M129 1049l10 -142l45 -151l33 -148l55 -110v-56l56 -55l-9 -121l31 -63l10 -47l-18 -23l8 -8l47 -88l9 -37l79 -74l109 56l80 73l31 15v22l79 64l-14 47l55 41v47l33 41l-10 14l22 78h11l-11 8l33 33v33l45 110l-12 13l55 120h13l-13 33l23 23l22 77l41 23v23l-8 10 l23 22l-15 11v45l-96 96h-78l-8 -8h-37l-65 -66l-9 -37h-14v-30l-33 -33v-47l-55 -164h-8v-33l8 -10l-33 -68h-12l12 -10v-23l-31 -32l-47 -33l-32 33v55l-23 23l-31 24l23 19l-14 77l-9 15v86l-24 41l10 69l-41 56l8 10v12l-32 43h-23l-8 31h-47l-56 47l-32 -23l-9 13z" />
<glyph unicode="w" horiz-adv-x="1536" d="M143 924l47 -64l9 -55l24 -70l8 -151l48 -56l-11 -14h-14l14 -10v-23l11 -55l8 -100l-19 -19l19 -37l22 -143l25 -23v-55l78 -41l8 -47h14l96 14l70 33v23l8 10l25 86l8 111h33l45 69h24l9 -14l14 -78l8 -10v-86l25 -47l30 -31v-10l144 -78h78l65 88l37 78l31 166l65 174 v78l31 55l-8 88l78 166h10l-10 31l41 102l-41 111l-86 45l-25 -23h-78l-45 -33l-10 -22h-8l-25 -180l-45 -64l14 -55l-24 -88h-12l12 -56l-31 -55l-14 -45h-23l-43 100l-12 11l23 32l-23 23v88l-18 45l-70 47h-133l-74 -69l-14 -56v-65l-23 -23l-55 -22l-19 32l-14 78 l-31 23l-10 155l33 33l-14 10l-9 56h9l-9 55l-55 68h-55l-33 18l-33 -8l-22 22l-33 -45l-14 13l-41 -56l10 -12v-10l-25 -23v-110z" />
<glyph unicode="x" horiz-adv-x="1085" d="M123 125l33 -14l47 36l22 -22l33 -70l-14 -10h22l33 33l14 22l56 66l8 70l133 55l22 -25v-8h80l64 -78l10 8l68 -55h43l37 -41h30v19l10 36l-40 19v22l8 15h-23l-10 8l10 10v23l-22 47l-11 41l-8 14l-14 41l-41 23l8 14l-45 111l92 165l109 86l65 121l9 123l-9 -12 l-22 45h-25l-8 33h-33l-45 -11h-65l-78 -55l-64 -123l-37 -43l-43 -53l-55 41v31l-53 102l8 8l-22 56l-33 47l-8 -11l-56 43h-80l-55 -24l-45 -64l-10 -77l33 -66l-9 -14l31 -19l66 -90l-11 -10l56 -45l55 -121v-111h-8v-32l-47 -31l-56 -70l-8 -41l-37 -22l-18 -47h-14z M289 203l33 33h14v-25zM586 119l35 14v23h-23l-10 -9zM723 -18h31l43 18l12 -8l33 -25v15l10 41l-10 14v8l-88 -8l-23 18l-8 -10v-63z" />
<glyph unicode="y" horiz-adv-x="1206" d="M129 -166l23 -55l-13 -8l56 -47h211l22 -19l10 10h68l43 23l12 -14l19 22l47 14l22 41l96 166v47l48 97l-11 45l41 55l-8 33l33 32v37l31 33v31l14 33l18 32v68l56 55v33l37 33l18 110l55 56v86l-55 80l-55 30l-33 -30l-41 12l-111 -78l11 -55l-33 -31v-55l-45 -70 l12 -10l-37 -31v-70l-31 -32l13 -8l-37 -37l-64 55l9 12v25l-56 110l-8 64l-33 110h-22l-10 9v24l-56 68l-100 33l-33 -56l-45 -14l-10 -74l24 -78l31 -45l-22 -32l47 -78l-15 -10v-13l33 -33l-10 -10v-12l33 -43l14 -78l41 -45v-33l31 -32l-8 -9v-47l8 -8l-8 -47l63 -86 l-18 -125l-37 -33l-86 47l-66 9l-123 -78v-33z" />
<glyph unicode="z" horiz-adv-x="1110" d="M125 78l63 -88h121l15 8l8 -8h188l25 -23l30 8l78 -18h80l8 10h88l78 31l47 111l-47 77l-8 -8l-70 64h-120h-78l-23 -23l-55 14v33l14 41l56 45l-15 10l70 78l41 88h22l47 111l9 12v25l102 96l86 133h-14l-8 10l8 13h14v65l-22 56l-23 12v10l-33 8v15l-8 -15h-25l-30 37 h-37l-10 -12l-78 31l-33 -31l-174 22l-180 9l-8 -31l-33 12l-78 -55l-14 -133l100 -101l158 -22l18 22h14l9 -10l22 -55l-22 -23l14 -8l-23 -24l-24 -31h-31l-14 -47h-10l10 -8v-15l-55 -78h-33v-32l-64 -97l-55 -92h-25l-45 -65z" />
<glyph unicode="{" horiz-adv-x="727" d="M55 725l17 -49l84 -25l20 2l31 -10l29 -29l-15 -270l8 -194l-22 -27v-25l39 -41l16 -82l125 -77l102 -27l117 10l33 58l-33 94l-63 2l-29 28l-57 13l-31 26l-2 123l6 123l2 58l-24 28l8 205l-45 76l-19 28l19 19l45 69l-8 119l24 29l-2 57l-6 123l2 123l31 27l57 12 l29 29l63 2l33 94l-33 57l-117 10l-102 -26l-125 -78l-16 -82l-39 -41v-24l22 -27l-8 -195l15 -184l-29 -29l-70 -16l-47 -2l-29 -37z" />
<glyph unicode="|" horiz-adv-x="528" d="M98 156l23 -25l-12 -63l22 -70l-10 -8l33 -47v-64l-15 -121l80 -92h31l78 25l55 78l-8 276l33 23v22l8 88l-19 23l13 84l-21 155l8 191l-22 55l22 23l-14 14l25 55l-25 19l14 14l11 53l8 121l-33 33l14 67h11l8 222l-41 143h-23l-24 45l-86 10l-47 -10l-41 -111l22 -55 l-37 -37h-8l-10 -108l43 -121l-25 -23l15 -133l-23 -18v-203v-111l-22 -32l16 -45l-14 -70l18 -129l-20 -90z" />
<glyph unicode="}" horiz-adv-x="727" d="M74 -61l32 -58l117 -10l103 27l125 77l16 82l39 41v25l-23 27l9 194l-15 270l29 29l31 10l20 -2l84 25l16 49l-6 47l-28 37l-48 2l-69 16l-29 29l15 184l-9 195l23 27v24l-39 41l-16 82l-125 78l-103 26l-117 -10l-32 -57l32 -94l64 -2l29 -29l57 -12l31 -27l2 -123 l-6 -123l-2 -57l24 -29l-8 -119l45 -69l18 -19l-18 -28l-45 -76l8 -205l-24 -28l2 -58l6 -123l-2 -123l-31 -26l-57 -13l-29 -28l-64 -2z" />
<glyph unicode="~" horiz-adv-x="995" d="M47 1341l6 -69h37l12 -6l13 12l20 -43l55 14l3 -14l86 29l94 12l12 -29l55 -10l86 -33l76 -10l148 -16l73 18l58 121l2 -10l67 18l-8 6l16 90l-30 13l-6 10l8 20l-47 4l-13 -8l-14 29l4 10l-31 12l-127 -86l-98 11l-119 43l-8 28l-76 -10l-61 16l-59 -2l-60 -26l-53 14 l-45 -24l-23 -105l-10 -2l-22 8z" />
<glyph unicode="&#xa1;" horiz-adv-x="565" d="M131 317l41 -88l-33 -118l11 -15v-55l22 -55l-10 -9l24 -47l-24 -77l10 -19l-22 -70h-11l23 -22v-33l33 -41l55 -37l110 37v19l-8 14l19 23l12 55l-31 110l41 119l-10 10v78l-23 70l23 18v68l-12 10v23l12 10v67l25 33l-37 133v88l-33 64l-78 14l-74 -55l-47 -86l23 -25 l-23 -166zM172 1104l14 -14v-109h19l12 -10v-23l98 -22l45 22l56 111l-8 8v23l-70 69l-78 10z" />
<glyph unicode="&#xa2;" horiz-adv-x="1533" d="M70 506l36 -100l11 -111l22 -23v-55l23 -33l-15 -10l23 -22l-8 -15l74 -86l14 12l55 -100l41 -22h45l47 -41h74l156 55l102 72l55 79l9 -10v33l22 45l-12 33l78 65l-33 78l-55 56h-89l-77 -56l-78 -133l-55 -88h-78l-41 33v45l-33 33l-23 77v175l-24 32l10 15h14l-24 77 l24 56h9l-9 41l111 110l64 23l22 -23v-22h23l10 -8l14 -48l86 -55l33 15l78 -33l55 55l10 -14l33 47l-65 196l-33 11v37l-45 40l-41 15v18l-92 23v14l-222 8l-18 -22h-47l-111 -111l-22 -88l-56 -78l-30 -96h-11l11 -45l-25 -143zM1008 870l14 -14l10 -55l12 -8l-12 -33 l86 -103v-41l-41 -92l23 -55l74 14l47 -47l-11 -8l-36 -14l-97 -97l10 -45v-88h-24v-110l14 -11l23 -67l33 -41l65 -70l12 15h11l77 -37l88 37l78 127l-22 24l8 12l-55 56l-33 88l-31 41l8 14l-18 41l10 14l23 97l-23 22l-33 25l11 31l22 32l8 111h23l-8 37l22 18v47l66 86 l22 125l-78 64v32h-24l-8 48l-15 8l23 22l14 66l-22 55l-56 68l-88 24l-77 -47l-15 10l-18 -32l-13 -88l-10 -31l-14 -47l24 -23l134 -18l22 -23l-14 -14l-19 -33l-22 23l-55 -8l22 -23v-14l-37 -11l-8 -8l-78 -37z" />
<glyph unicode="&#xa3;" horiz-adv-x="1216" d="M59 711l56 -47l96 4l43 -11l18 -34l-4 -52l-26 -32l-6 -258l-23 -19l-31 -147l43 -111l64 -31l14 13l10 -13l31 -10l80 -22l41 22l22 -22l78 22l33 -14l244 -8l32 22h78l86 78l-12 10l8 55l-28 64l-43 37l-9 -14l-18 24v8l-10 -8l-33 31h-23l-45 -31l-153 8l-72 -18 l-37 18l-14 -8h-10l-13 8l-14 47l-10 56l12 100l-18 33l6 129l14 53l43 25h70l98 -13l86 9l33 36l47 66l-14 55l-11 56l-55 8v22h-45l-10 -8l-78 -14l-23 -19h-32l-23 19l-35 33l-16 61l12 63l27 111l4 70l68 96l92 33l41 -33l10 14l78 -39l51 -57l33 -23l53 -30h33l73 49 l48 113l-27 94l-60 45l-65 45l-8 -12h-15l-14 36l-67 19l-11 -10l-65 32l-60 -32l-8 10l4 12h-143l-109 -55l-55 -12l-74 -56l-49 -73l-18 -70l-39 -166h-8l-4 -33l14 -30l2 -123l-31 -78l15 12l-31 -16l-78 -8h-55l-56 -78v-88z" />
<glyph unicode="&#xa5;" horiz-adv-x="2101" d="M102 96l56 -92h55l23 -18h32l56 43l188 -43l63 18l70 14l33 23l31 -37l10 14l100 -32l55 -13l33 31l101 -8l10 8h45l43 80h22l-22 111l-55 30l-66 92l33 33l55 8l45 25l-12 8l22 23h15l-15 14l46 66h24v30l8 15h11l36 65l31 8l55 15l78 -125l-12 -8l22 -25v-8l46 -111 l65 -69l8 -9l37 -24l-22 -53l-56 -33l-32 -56l-13 -22l23 -25l-10 -8h-13l13 -55l120 -66l45 33l66 -22l22 22l66 -33l23 19l22 -19h8l125 56l41 120l-22 64l-144 92l-41 74l-67 47l-11 63l-22 37l-78 88v56l-33 8l-47 78l-63 143v111h8v47l55 108l15 -12v37l-15 8l103 78 l22 55h10l13 55h10l45 80l143 9l78 32v111l-69 55h-41l-23 -24l-33 24h-100l-121 -10h-55l-78 -78v-88l-14 -31l-9 -80h-10l10 -12v-43l-100 -123l-33 -10l-41 23l-102 165l10 43l23 37h22v31l11 33l-19 45l19 18l12 37l-55 19l-23 36l-33 -12l-12 -10l-74 -14l-24 -56h-13 l-88 56l-143 -19l-23 33l-8 -33l-69 -45h-97l-213 8l-63 -30l-15 12v18l15 15v41l-23 -19l-55 -45l-25 -65l56 -78v-56l55 -100l-23 -65l-8 -56v-86l-24 -47l-8 -63v-111l22 -22l-22 -25l8 -8v-15l-31 -55l31 -96l-31 -203l45 -63l-22 -25v-8l8 -14l-119 -86zM369 1221 l18 36l47 19l45 100l74 23h92l19 10h36v-10l41 -13l56 13l14 -13l18 23l37 -23l64 -65l33 -78l143 -309l12 -8l10 -56l-32 -36l10 -11l-33 -45v-73l-65 -37l-13 -33l-32 -41v-45h-9l-14 -33l-18 -22l8 -11l-56 -37l-100 -151l-10 -55l-78 -56l-33 23l-108 18l-33 -18l-33 18 l-22 56v77v56l22 55l-22 102l22 56l-22 30l8 88l14 125v19l-22 22l22 56l-14 77l-41 56h-23v55l9 10v23z" />
<glyph unicode="&#xa7;" horiz-adv-x="1024" d="M109 864l2 -151l55 -109l434 -291l12 -86l-65 -67l-51 -2l-60 37l-14 57l-55 94l-72 12l-51 -53l4 -166l112 -151l148 -35l139 29l148 155l-7 260l29 31l37 25l92 168l-4 161l-82 123l-53 13l-113 120l-110 56l-185 106v37l70 102l66 11l67 -37l47 -152l109 -10l57 57 l-2 25l10 43l-41 94l-127 135l-153 39l-15 -14l-94 -17l-108 -83l-39 -95l-23 -116l27 -117l-23 -45l-84 -58l-8 -96zM301 745l10 148l58 43l94 -12l180 -105l43 -14l53 -66l2 -94l-79 -74l-123 -2l-142 121l-53 12z" />
<glyph unicode="&#xa8;" horiz-adv-x="841" d="M96 1309l99 -70l71 -12l62 59l22 55l33 23l-10 10v68l-23 55l-69 33l-31 22l-111 -55l13 -14l-56 -31v-143zM471 1386l23 -77l61 -88l86 6l74 26l63 56l15 110l-56 78l-55 33l-78 8l-10 -8l-55 -14l-45 -41v-48z" />
<glyph unicode="&#xa9;" horiz-adv-x="2144" d="M201 618l32 -26v-154l50 -110l-33 -170l49 -74l82 -64l18 -53h50l12 -10l37 -63l84 -25l67 -92l82 -37h117l29 -27l364 -10l121 27l82 47l213 151l49 82l68 74l14 74l67 90l-12 37l29 90l20 217h35l-35 26v11l13 16l-33 37l33 66l-33 63l33 88l-62 100l12 11l-45 63 l-22 17l22 10v12h-36l-13 14l13 11l-48 53v37l-235 166l-47 14l-131 84l-271 16l-47 37l-82 -24l-133 -50l-92 -26l-55 -37l-12 12l-132 -76l-49 -63h-34v-27l-80 -137l-13 -80h-20l20 -10v-27l-55 -51l-43 -229l35 -37zM467 758l47 55v141l25 84l59 39l-16 43l65 49l15 -10 l92 31l-21 16l328 92l264 -45l195 -141v-76l73 -43v-131l60 -104l-25 -37l25 -10v-95l-25 -186l-35 -61l15 -13l-43 -28l28 -13l-110 -168l-43 -90l-203 -96l-266 -35l-19 -18l-110 18l-88 35h-35l-123 148l-39 51l-29 -15v80l-14 51l-16 105v133v152zM623 489h36l-4 -69 l52 -111l77 -84l29 -49l47 -14l47 -45l41 -23l41 -8l37 -10l43 -15l16 19l72 6l78 49h18l47 43l5 37l55 49l8 43l21 33l-7 10l41 80h-39v55l-24 58l-84 12l-66 -45l-18 -37l-4 -12l-6 -23v-39l-37 -43l4 -12l-19 -8l-28 -27l-98 -8l-37 31l-41 24l-21 43v19l-12 22l-14 23 l-2 37l-17 20l6 209v-4l17 94l30 60l5 24l43 10v29l43 25l34 4l60 6l37 -14l22 -41l2 -54l45 -26l53 -8h99v26l26 14l15 66l-64 86l-12 -20l-14 8l-19 -10l39 67l-96 43l-41 -14l-12 12h-15l-22 37h-41l-33 -14l-35 -7l-57 27l-19 -29l-47 27l-39 -37l-34 -6l-9 -18h-22 l6 -25h-37l-20 -51l-27 -17v-30l-45 -39l16 -15l-26 -49v-37l-31 -98v-80l-10 -86l16 -10z" />
<glyph unicode="&#xaa;" horiz-adv-x="2093" d="M170 82l18 -68l68 -32v-23h33l10 14l12 9h43l23 22l55 96l14 80l9 56v86l-23 24l14 211l-24 23l-12 65l45 141l-9 25l-14 53l23 25h22l33 -25l47 -100l41 -55l23 -64l10 -10h67v-14l-32 -41l10 -70l88 -119v-45l31 -43l-9 -12l-10 -43l55 -111l43 -12l13 -80h10l8 -41 l80 -31l45 9l41 10v22l14 13h23v176l18 55l-18 55l18 64l-8 14l23 78l-23 33l8 8l15 135l-23 23l8 8h15v33h-15l-8 14l8 8v14l23 56l-31 88l8 8l15 55l8 88l-23 45l23 33l-23 33l-8 45h-10l-14 55l32 47l15 86l-23 33l8 10l-32 68l-9 -12h-14l-18 22l-13 -10l-43 33l-12 -8 l-24 30h-19l-37 -30l-18 -47l-13 -189l23 -22l-10 -66l33 -31l10 -55l-25 -25l-18 -30l74 -56l-41 -14v-18l-33 -15l10 -55l8 -8l-8 -15v-32l-33 -41l-14 10l-31 23l-33 96l-55 69v56l-33 63l-55 103l-45 86l-41 55v33l8 14h-22l-11 8v23l-55 55v-12l-12 -10l-111 88h-32 l-33 -11l-23 -45l-55 -10l-8 -45v-88v-166v-100l-25 -19l10 -69l-18 -23l8 -262l-8 -33l33 -100l8 -10v-56l-23 -22l15 -101l-25 -55l-8 -65l33 -45l-33 -33v-23l18 -43zM1284 92l55 -55v-33h23l22 10l11 13l86 -13h188l47 -32l8 22h25l31 -12l102 78l8 55l-22 68l-33 10v8 l-55 37l-244 18l-23 -18h-10l-8 10l-55 -10l-23 18l-69 -55l-9 14l-47 -55zM1348 1174l14 -9l8 -47l33 -22h92l41 37l-8 8l22 47h41l33 33l37 -25l41 -100h33l37 -33l118 22l11 11l22 147l-63 86l8 10l-119 111l-80 -10l-22 -45h-23l-33 55h-22l-66 -41l-8 8l-92 -33l-8 -45 l-47 -77v-88z" />
<glyph unicode="&#xab;" horiz-adv-x="1167" d="M45 813l25 -108l30 -80l6 -31h11l26 -80l19 14l18 -55h21l16 -33l6 11l33 -23v-10l4 10l14 -33h15l47 -45l4 12l51 -55v-12l15 12l10 -22l33 -23l10 -41h8l4 8l10 -22l4 14h19l41 96v78l-2 8v37l-29 66l-14 8v14h-15l-14 33h-18l-70 55v9h-14l-4 -9l-29 33v13l-4 -13h-10 l-15 31l-14 47l14 33h25l8 22l10 31l8 -22l33 14l6 8h37l19 25l28 -11l23 41l6 -8h4l18 33v22l13 9v47l20 55l-8 33l4 8l-39 102l-59 -10l-66 -45l-61 -33l-47 -55h-25l-22 -55l-52 8l-28 -31l-19 -10l-10 18l-4 -8l-37 -47l-16 -8zM586 813l24 -108l31 -80l6 -31h10l27 -80 l18 14l19 -55h20l17 -33l6 11l33 -23v-10l4 10l14 -33h14l48 -45l4 12l51 -55v-12l14 12l10 -22l33 -23l10 -41h9l4 8l10 -22l4 14h18l41 96v78l-2 8v37l-28 66l-15 8v14h-14l-14 33h-19l-69 55v9h-15l-4 -9l-28 33v13l-5 -13h-10l-14 31l-14 47l14 33h24l9 22l10 31l8 -22 l33 14l6 8h37l18 25l29 -11l22 41l7 -8h4l18 33v22l12 9v47l21 55l-8 33l4 8l-39 102l-59 -10l-66 -45l-61 -33l-48 -55h-24l-23 -55l-51 8l-29 -31l-18 -10l-10 18l-4 -8l-37 -47l-17 -8z" />
<glyph unicode="&#xac;" horiz-adv-x="3645" d="M166 156h22l15 -9l18 23l15 -125l63 -22v-9h33l100 -10l47 -37h31l25 15l55 -23l110 33l41 -10v22l45 19l-12 14v8l45 25v22l88 88l68 -24l88 -64l111 -14l110 -19l41 -14l47 25l55 -25l-10 14v11l41 63l47 -33l8 -30h56l88 -33l92 33l33 -11l30 19l56 -19l24 -36h31 l102 -9h74l133 56h56l88 45l22 -23h31l47 23l8 -15h80l55 -22l45 14l11 8l78 33l100 111v69l-23 23l-69 151l-119 48l-23 55l45 55v31l41 24l56 9l55 -33h55l23 24h135l31 23l55 8l33 -31l55 -14h92l33 45l41 25l92 86v47l19 18l-11 13l-55 110l-45 25l-33 -15l-96 45 l-45 -30l-10 8l-56 10l-202 23v14h-56l-32 18l-134 37l-110 19l-197 12h-41l-55 25l-14 -15l-33 15l-33 -25l-55 25v8h-56l-22 22l-166 -14l-78 37l-119 -45l-55 -8l-14 -15l-119 -10l-10 -12l-92 -19l-88 -47l-9 10l-143 -18l-68 -55h-120l-125 73l-9 37l-10 -14l-22 23 l-56 22h-122h-66l-45 10l-66 -55l-100 55l-96 -10l-25 -45l10 -10l-32 -23v-100l-33 -66h33l14 11v55l18 22h15v33l8 23h23l77 -11l25 25l8 -14l66 32l147 -65l31 22l33 -30l-33 -56l-23 -135h-8v-108l-47 -80l10 -8l-18 -70l18 -33l-18 -155l41 -111v-55l45 -19l33 11l10 8 l55 -41l-33 -70l-65 -8l-55 -33l-101 41h-143l-23 -33h-32l-31 15l-55 32v56l-25 55l-31 -22zM166 590h22v8l15 14l18 -22l23 22v9l-33 24l-31 -24l-14 10v-41zM700 487l19 103l22 41l-22 55l12 70h10l15 30v33h8l10 33l12 -10h11l12 32l166 33l88 23l55 33l56 -11l22 23 l33 -12h33l45 36l166 9l10 10l78 45l63 22h78l55 33v23l55 10l33 -33l254 10l133 -55h78v-10l33 -8l70 18l30 -55l66 -19l45 19v22h55v-10l10 -12l45 22l56 15l78 -56l41 -24l110 10h103l32 -33l8 11l111 -43h55l45 -31v-37l-45 -41l-55 8l-74 -41l-69 8h-31v25l-25 23 l-118 -15h-33v15l-148 18h-118l-47 -18l-19 30h-37l-8 -12l-55 45l-8 10l-25 -18h-68l-10 -15l-88 -22l-22 -18l-33 8l-13 10l-129 -74h-77l-88 -78l-70 -24l-64 -101l9 -55l32 -18l125 33l9 -15l32 23h234l33 22v33l-33 33l-13 14v31l68 24l33 41l47 23l74 -55l22 -56 l-133 -63l-18 -55v-15l63 -10l10 10l45 23v-8l48 -15l53 -18h33v-15l77 -8v-55l129 -70l48 -41l-48 -69l-86 -56h-88l-65 15l-45 33l-101 8l-10 14l-45 -33l-74 56l-47 41l-45 -9l-18 23l-189 -23l-125 -143l15 -14h-56l-110 55l-166 -31l-33 23l-92 8l-8 -8l-133 -33 l-43 -14l-123 125l-43 73l-23 23l-45 -8v-15h-33v15l-65 22h-78z" />
<glyph unicode="&#xad;" horiz-adv-x="761" d="M131 649l55 -47l244 -8h55l86 8l33 37l47 66l-14 55l-10 55l-56 8v23h-45l-10 -8l-78 -15l-22 -18h-33l-23 18h-41l-77 -8h-56l-55 -78v-88z" />
<glyph unicode="&#xae;" horiz-adv-x="2144" d="M201 618l32 -26v-154l50 -110l-33 -170l49 -74l82 -64l18 -53h50l12 -10l37 -63l84 -25l67 -92l82 -37h117l29 -27l364 -10l121 27l82 47l213 151l49 82l68 74l14 74l67 90l-12 37l29 90l20 217h35l-35 26v11l13 16l-33 37l33 66l-33 63l33 88l-62 100l12 11l-45 63 l-22 17l22 10v12h-36l-13 14l13 11l-48 53v37l-235 166l-47 14l-131 84l-271 16l-47 37l-82 -24l-133 -50l-92 -26l-55 -37l-12 12l-132 -76l-49 -63h-34v-27l-80 -137l-13 -80h-20l20 -10v-27l-55 -51l-43 -229l35 -37zM455 475l24 37l-24 10v94l24 187l35 61l-14 13l43 28 l-29 13l111 167l43 91l202 96l267 35l18 18l111 -18l88 -35h35l122 -148l39 -51l29 14v-79l14 -52l17 -104v-133v-152l30 -92l-47 -55v-141l-24 -84l-60 -39l17 -43l-66 -50l-14 11l-92 -31l20 -16l-327 -93l-265 46l-194 141v76l-74 43v131zM678 276l18 -14l-10 -31l39 -84 l49 -14v-8h21l18 8h37l29 27l16 45l10 241l29 52l49 30l45 -14l14 -31l23 -43l8 -63l64 -101l-11 -8l62 -84v-37l24 -14h64l61 41l15 23h-11l-12 43v28h8l-16 15v51l-23 14v64l-16 14l8 8l-30 37v21l6 22l-23 41l33 14l14 31l47 27v16l31 35l-8 8l39 37l-8 6l16 14v7v143 l-8 8v27l-23 22l-16 8l-8 21l-31 65l-70 43l-8 -6l-45 27l-39 10l-22 -16l-11 6v10l-45 4l-30 17l-23 -17l-133 -4l-29 21v14h-39l-53 -31l-24 -28l-25 -64l25 -35l-25 -45l16 -12l-6 -10h-10l10 -49l6 -7l-6 -129l29 -57l-23 -8l-16 -16l-8 -156v-43l-15 -17v-143zM918 729 l26 21v14l-26 20l16 52l10 65l6 27l45 37l27 -7h82l8 7l76 -37l33 -41l-9 -66l-8 -37l-28 -34l-17 -17l6 -4l-75 -37l-56 6l-6 9l-6 -9h-78z" />
<glyph unicode="&#xb0;" horiz-adv-x="792" d="M82 1143h33l12 -8v-56h-23v-110l33 -103l101 -63l10 -23l45 13l55 -23l41 23l14 -13h97l88 45l14 33l41 23l23 63l47 33l-15 92l23 18v70l-55 55l47 41v111l-23 22l-10 33l-45 23v22l-66 47l-110 9v10l-45 14l-25 -14l-53 -41l-66 -25l-14 11l-41 -19v-55l-33 -37v-33 l-22 -41l-33 -14l-37 -23zM256 1235h14l11 88v-14l12 -9l74 54l55 -8l37 -46v-55l33 -24l22 -23l-22 -33l-23 -86h-25l-55 -80h-53l-55 80v56l12 8l-12 14z" />
<glyph unicode="&#xb1;" horiz-adv-x="1478" d="M68 1458l32 -88l31 -14l23 -86l-23 -80l10 -31l78 -47l88 -8v-25l37 -8l18 152l13 147l80 33l8 8l55 47l33 -24v-31h31l14 -14v-11l96 -8v-45l-30 -10v-45l-25 -25l14 -8l-22 -23v-47l22 -41l-14 -14h-8l22 -18l-14 -15h-8l8 -96l14 -14l-33 -31l-12 -23l31 -55l-8 -55 l-11 12v-45l-12 -10l31 -68l14 -10v-14l-22 -31v-111l8 -32l47 -33l33 10l22 -22l9 12h47l22 24v19l-22 100l32 45l-10 185l41 36l-8 11v45l-23 18l13 70h-23l-14 8l14 80l-55 45l10 10l-24 23l14 8v24l41 56l55 108l-18 25l55 22l74 9l22 -23h56l24 -22l31 -175l-31 -65 l23 -92l8 -262l14 -15l-14 -73l-8 -220v-69v-152l8 8l24 -32l9 10l47 -55l30 14l33 -37v-10l15 -31l-23 -24h-10l-15 -119l25 -23l31 -14l24 22h56l53 78l-8 47l-78 64l-55 10l-15 156l-63 -23l-25 55l111 78l14 103v119v284l-14 15l14 77l-14 11l14 8l10 157h8l-18 31 l18 25l37 63l64 56v36l10 74l-55 55h-64l-55 23l-66 -41l-22 18l-299 23l-78 -41h-43l-37 33h-30l-80 8l-64 -41l-22 -47l-33 33l-78 47h-78l-18 22l-15 -14h-10l-55 22l-45 -30h-41l-37 -33zM109 717l45 -55v-33l43 -33l22 18l55 -55h56l22 25v12l-22 74l22 37v55l-55 166 h-33l-86 10l-14 -33h-23l13 -14v-41l43 -45l36 31h31l10 -9v-32l-10 -15l-31 -18l-110 -12v-25zM154 242l79 -56l-14 -12l45 -10v33l10 14l15 41l-70 33zM186 -33l11 -14h12v45zM242 487l10 -69l55 -23v13l12 32l-22 23zM289 983l8 -14h47v32l-37 15zM385 45l70 -70l63 -22 v22l10 15h13v73l10 56l-66 14l-12 -47zM629 285h8l14 -11v-32h33l23 -23v-22l77 -41v8l19 78l-19 55l11 10h8l-19 33l11 12h-23l-33 10l-88 -10zM692 596l15 43l41 -43h-56zM827 -25l31 -41h25l30 19l78 14v23l-30 8l-33 65l22 23h11l30 14l56 -37l32 37h37v33l-14 8h-8 l-47 -32l-56 32l-119 -63l-32 -15zM1061 1481l18 18l23 -10l24 -23v-32l-10 -9h-22z" />
<glyph unicode="&#xb2;" horiz-adv-x="811" d="M59 788l33 -77l55 -31l23 22l188 -10v-22l11 10h22l15 12h8l100 -22l55 32l19 -22l47 -10l22 32h33l33 33l-10 13v10l22 22l-12 41l-88 70l-111 8v33l23 22l110 70l33 33l45 110l33 97l-33 92l-37 18l-30 78l-154 47l-145 -47l-43 -41l-86 -102v-45l18 -19l-10 -14 l33 -23l-11 -10h111l33 47l100 41l43 -41l-55 -78l-10 -32l-68 -23l-10 -14l-33 14l-31 -33l-14 -45l-88 -33l-33 9l-100 -78l-11 -64l-30 -10z" />
<glyph unicode="&#xb3;" horiz-adv-x="724" d="M74 834l32 -70h23l55 -55h78l23 -23l121 -18l-11 8l152 10l55 125h14l9 96l24 56l-24 12v10l10 14l-33 64l23 111l24 22v55l-24 23v65l-31 33l-70 55l-143 56l-8 -10l-88 -15l-56 -55l-67 -64v-110l78 -55v-56v-45l8 -10l47 -88l63 10l37 -33l11 -55l-80 -45l-9 12 l-124 66v14l-74 -37l-37 -73h-8zM381 1184v37h33z" />
<glyph unicode="&#xb4;" horiz-adv-x="638" d="M86 1262l23 -134l41 -43l14 11h41l69 45h33l55 65l9 -10l55 66l70 100l8 -14l24 24l-10 8v15l33 32l-33 46l-110 10l-56 -10l-100 -56l-55 -55l-11 -37h-45l-22 -18z" />
<glyph unicode="&#xb5;" horiz-adv-x="1746" d="M80 -27l8 -14l14 -41l41 -14l33 -10l92 32l8 -8v-14h56l10 14l14 -14h9l88 33l55 -33l22 22l88 11l56 45v110h-19l-24 119l24 25v45l31 32l43 23v88l55 63l93 78l41 -8l22 -88l119 -156l92 -188l-92 -66l-19 -67l33 -55l66 -33l30 22l15 -8v-14h33l77 -23l119 -10l33 23 l110 -23l78 33l33 69l-8 9l-25 88l-22 22h-33l-55 -10l-64 33l-33 10l-110 178l-55 98l-13 68l-43 41l-12 33l-66 47l-32 63l-23 23l-33 24v111l43 63h23l22 46h33v24l23 55l10 -14l-10 37l33 33v41l22 22v47l23 23l110 86h41l80 -12l23 22l8 -10v24l32 19l23 67l-31 43v37 l-32 31l-56 10l-102 -22h-64l-45 12l-88 10l-88 -55l-14 14v9l-8 -9l-23 19l-24 -19v-24l-9 -111l45 -123l-22 -18h10l12 -14l-22 -23v-10l-123 -119l-43 18l-86 93v55l-80 96l10 14l15 41h30l56 -10l32 33h11l37 55l-25 23l10 10h15l-37 70l-66 8l-78 10l-32 -43h-33 l-78 -12l-141 55l-70 -18l-10 -15l-56 -10l-22 -45l-8 -111h22l8 -10v-22l121 -23l92 -55l31 -55l25 -9l8 -55l22 -25l-12 -8v-14l37 -23l18 -65l68 -64l10 -77l23 -23v-80l-45 -63l12 -15l-22 -18h-9l-47 -92l-8 14v-22l-55 -103h-37l-33 -31l-8 -32l-80 -121l-78 -101 l-22 -55l-66 8l-63 -18l-23 -23h-14z" />
<glyph unicode="&#xb6;" horiz-adv-x="1228" d="M127 1282h18l27 -29l-33 -204l-2 -58l29 -28l16 -111l49 -82l127 -82l88 -10l62 43l18 74l-37 82l-51 14l-35 29l-6 327l43 64l82 -13l35 29l76 -2l10 -29l-14 -122l-4 -244l-21 -99l58 -192l-13 -578l66 -53l47 -14l67 51l-8 262l2 94v82l-12 125v56l6 315l-26 248 l36 137l-14 125l-303 45l-166 -27l-149 -77l-21 -82l-47 -41v-25zM934 270l4 -219l51 -57l68 4l47 57l-4 119l-15 125l-55 70v26l17 25l-23 86l10 10l35 29v43l6 139l-49 66l59 43v67l-51 55v39l10 123l48 31v43l-25 23l-37 28l55 72v121l-51 69l-33 -2l-32 -14l-25 -45 l4 -148l2 -71l-6 -314l27 -65l-35 -88l16 -246z" />
<glyph unicode="&#xb7;" horiz-adv-x="589" d="M135 614l55 -79h86h74l82 36l17 56l26 202l-61 62l-166 12l-113 -55v-234z" />
<glyph unicode="&#xb8;" horiz-adv-x="598" d="M131 -408l33 -24l49 -23l76 -6l57 15l45 -11l45 25l39 4l23 45l57 16l16 43l17 25l-2 20l6 52l-12 34l-19 39l-37 17l-24 41l-27 -10l-49 10l-49 8l-62 -16l-12 24l4 25v110l-133 -8l-16 -37l-6 -65l-9 -21l15 -33l-11 -22l13 -41l63 -16l25 -17l35 12l20 35l16 -39 l25 -18h39l18 -27l4 -49l-28 -16l-17 -6l-26 2l-35 -6l-43 20l-39 -4l-29 12l-28 -20l-25 -47z" />
<glyph unicode="&#xb9;" horiz-adv-x="638" d="M68 1206l55 -65h129l37 -68v-43l-23 -31l23 -110l8 -55l10 -103l45 -63l80 32l41 41l-18 23l32 110l-14 33l-10 101l24 32l9 -10v199l14 55h8l-8 8v158l-37 55l-55 23v10l-33 12l-111 -55l-110 -147l-64 -31l-14 -55h-8z" />
<glyph unicode="&#xba;" horiz-adv-x="1898" d="M86 627l70 -135l-15 -9l23 -88l10 11l23 -66l-33 -31l55 -125l55 -22v-10l48 -33l40 -86l46 -56h43l36 -36l9 -19h32l111 -14h33l35 -8l73 30l70 25l65 41v37l31 30l15 -12l88 123v55l22 56h23l-13 10l23 123l-33 43l-22 22v33l-134 -10l-65 -55l10 -56l-33 -45l9 -10 v-23l-19 -55l-45 -22v-23l-88 -43l-12 -12l-10 12v10l-46 -22l-10 12v10l-8 -10h-25l-77 55l-64 43l-47 68l-8 88v100l-25 56v121l-30 45l8 10h10v188l55 56l37 55v55l19 23l67 32l25 64l41 88h32l37 -55l72 -41l55 -47l-8 -9h-10l43 -47l-10 -8l41 -47l-9 -8l33 -33 l111 -78l22 23l33 10l-10 8v15l41 22l24 41l-10 14v33l10 8l-24 56l-56 47l15 8l-23 22l8 11l-18 55l-111 45l-77 10l-45 70l-88 31l-64 -23l-14 -55l-33 -33l-8 10l-25 70l-31 -14l-55 -74l-14 -37l-56 -10l-110 -56v-22l14 -8l-22 -23l-47 -80l-9 15l-32 -78l8 -15 l-23 -32l56 -97l-23 -22l14 -88l23 -23l-37 -55l23 -22l-33 -23h-64v-33zM1112 915l14 -36l23 -41l-14 -15v-174l24 -47l45 -63l33 -11v-12l111 -33l55 56l41 8l22 -19l15 11l174 8l10 14h23l102 144v141l22 33l-22 69l8 8l-22 25v23l14 8l-55 125l-70 41v24l-10 31l-31 14 v8h-88l-45 -22l-25 47l-8 8l-69 15l-33 -37l-8 14l-23 -25l-65 -30l-37 -23l14 -10v-14l-23 -31h-24l-31 -10v-23l-24 -33l24 -100zM1159 -14l45 -23l33 -55h33l45 14l121 -22l100 -33l41 18l33 -10l14 10h31l65 37v19l15 14v151l-80 46l10 10h-41l-14 -10h-88l-23 -23h-55 v-23l-8 -10l-11 10l-22 -18l-70 74l-55 -10l-96 -64l-15 -47h-8v-55zM1380 838l9 88l14 45l78 88h32l41 -55l-32 -134v-55l-9 -55l-32 -66l-56 11z" />
<glyph unicode="&#xbb;" horiz-adv-x="1191" d="M49 1026l21 -55v-47l12 -9v-22l18 -33h6l5 8l22 -41l31 11l16 -25h37l6 -8l33 -14l8 22l10 -31l11 -22h22l15 -33l-15 -47l-12 -31h-10l-4 13v-13l-29 -33l-4 9h-15v-9l-69 -55h-21l-14 -33h-12v-14l-17 -8l-26 -66v-37l-4 -8v-78l41 -96h18l4 -14l10 22l4 -8h11l10 41 l33 23l8 22l14 -12v12l51 55l7 -12l47 45h14l12 33l4 -10v10l33 23l6 -11l19 33h20l17 55l20 -14l27 80h10l6 31l31 80l22 108l-30 80l-17 8l-37 47l-4 8l-8 -18l-20 10l-27 31l-51 -8l-25 55h-22l-47 55l-64 33l-63 45l-60 10l-41 -102l6 -8zM608 1026l21 -55v-47l12 -9 v-22l18 -33h7l4 8l22 -41l31 11l16 -25h37l6 -8l33 -14l8 22l11 -31l10 -22h22l15 -33l-15 -47l-12 -31h-10l-4 13v-13l-29 -33l-4 9h-14v-9l-70 -55h-21l-14 -33h-12v-14l-17 -8l-26 -66v-37l-4 -8v-78l41 -96h18l4 -14l10 22l5 -8h10l10 41l33 23l8 22l14 -12v12l52 55 l6 -12l47 45h14l12 33l5 -10v10l32 23l6 -11l19 33h20l17 55l20 -14l27 80h10l6 31l31 80l22 108l-30 80l-17 8l-37 47l-4 8l-8 -18l-20 10l-27 31l-51 -8l-25 55h-22l-47 55l-64 33l-63 45l-60 10l-41 -102l6 -8z" />
<glyph unicode="&#xbc;" horiz-adv-x="1458" d="M66 1221l43 -80h36l19 10l100 -18l33 -56v-92l-10 -33l22 -8v-14l-12 -8h-10l10 -11l12 -202l99 -33l30 80h15v110l22 45l-12 152l22 33l9 55h14l-14 55v111h14v37l-14 73l-31 93l-144 18l-22 -43l-43 -22v-33l10 -13l-45 -65h-18l-125 -111zM176 29l33 -70h88l12 45 l66 43l8 37h14l56 86l32 10l33 56l12 55l66 67l45 74l33 14l22 89l11 -11l100 111l10 41l64 80l14 55l78 45l-15 10l33 31h15l-15 14v11l47 45l-10 8l64 55l79 88l23 47l119 133l10 -14l55 88l15 45l-25 78l-31 33l-88 10l-78 -55l9 -10l-78 -101l14 -10l-88 -100l-14 -41 l-78 -80l-33 -78l-22 -41h-19l10 -14l-24 -23h-23v-41l-55 -33l-18 -55h-15l-78 -92l-73 -111l-37 -8l-55 -110l-9 8h-10v-19l-12 -12v-43l-43 -45v-10l10 -13l-47 -32l-8 -33l-88 -70l-15 -41l-53 -32l12 -13l-22 -24h-8v-19zM651 137h23l8 -12l-8 -10h55v-13l64 23l32 -10 l37 -13l121 13l78 -68l8 -65l14 10l64 -66l10 11h23l55 55l22 92h33v18l47 13v22l-14 10l37 33l-47 78l-23 33h-33l-45 78l15 8l-25 37l25 18l-15 14l15 89l-15 8v133l-88 47l-22 8l-88 -22l-64 -64l8 -10l-30 -37h-10l-37 -55l-33 -64l-31 -10l-24 -55l-64 -68l8 -10 l-86 -111v-88zM950 313v33l41 45h37l19 -45v-24l-89 -9h-8z" />
<glyph unicode="&#xbd;" horiz-adv-x="1492" d="M68 1206l55 -65h129l37 -68v-43l-23 -31l23 -110l8 -55l10 -103l45 -63l80 32l41 41l-18 23l32 110l-14 33l-10 101l24 32l9 -10v199l14 55h8l-8 8v158l-37 55l-55 23v10l-33 12l-111 -55l-110 -147l-64 -31l-14 -55h-8zM197 23l36 -31l74 -55l37 30l33 78l22 47l33 8 l31 70l102 74l56 110l86 111l24 55h8l-8 15l31 30l33 47l47 19l110 188h9l65 111l12 -10h11v24l86 96l-9 33l119 101l-8 10l33 53l55 70l78 133l-33 18v37l-110 43l-23 -25l-10 15l-37 -23v-47l-31 -74l-110 -77l-56 -101l-55 -65l-10 -56l-68 -77l-10 10v-19l-23 -24 l15 -12l-47 -43l-56 -68l-32 -41l10 -14l-55 -56l14 -10l-47 -45l-8 -33l-78 -96l-103 -102v-45l-41 -33l-55 -111l-47 -22l-86 -129zM717 45l33 -78l55 -30l22 22l189 -10v-23l10 11h23l14 12h8l100 -23l56 33l18 -22l47 -11l23 33h33l32 33l-10 12v10l23 23l-13 41l-88 69 l-110 9v32l22 23l111 70l33 32l45 111l32 96l-32 92l-37 19l-31 78l-154 47l-145 -47l-43 -41l-86 -103v-45l18 -18l-10 -15l33 -22l-10 -10h110l33 47l100 41l43 -41l-55 -78l-10 -33l-68 -22l-10 -15l-33 15l-30 -33l-15 -45l-88 -33l-33 8l-100 -78l-10 -63l-31 -10z" />
<glyph unicode="&#xbe;" horiz-adv-x="1615" d="M74 834l32 -70h23l55 -55h78l23 -23l121 -18l-11 8l152 10l55 125h14l9 96l24 56l-24 12v10l10 14l-33 64l23 111l24 22v55l-24 23v65l-31 33l-70 55l-143 56l-8 -10l-88 -15l-56 -55l-67 -64v-110l78 -55v-56v-45l8 -10l47 -88l63 10l37 -33l11 -55l-80 -45l-9 12 l-124 66v14l-74 -37l-37 -73h-8zM193 37l47 -70l8 15l22 -23l-8 -10h88l23 18l33 92l30 11l15 55l65 78l100 110l9 78l24 19l41 14l-10 8l47 47l8 31l66 55l22 56l33 10v37l55 41l-10 14l66 74l55 22v23l12 10l10 -10v32l33 33l45 92l88 111h23v18l33 78l32 15l37 86l31 10 l-12 12l37 43l-48 55l-63 23l-92 -23l12 -10v-14l-100 -119l-10 8l-142 -207l-69 -67l-33 -66l-55 -22v-33l-64 -86v-33l-37 -37h-18v-41l-70 -69l-96 -185h-23l-125 -147l-32 -8v-33l-9 -22h-14l14 -33l-32 -33l-23 -14zM381 1184v37h33zM838 203l41 -47l88 -23v-8h37l8 8 l22 -18l121 10l55 -47l101 -129l80 10l30 64l11 77l45 15l10 32l31 9l24 55l-43 55l10 33h-47l-41 78l-12 14l12 144l-12 8l12 110l-67 56l-11 -9l-8 9l-55 14l-14 -14l-133 -9l-33 -79l-10 10l-46 -41l-22 -70l-33 -41l-22 -47l-41 -8l-56 -102zM1145 391h24l31 -37l-12 -8 h-33z" />
<glyph unicode="&#xbf;" horiz-adv-x="1011" d="M121 0l37 -47l10 10l31 -18l-9 -15l56 15l41 -56l47 41l-10 33l18 55h14l-14 15l55 55l15 55l77 56l56 63v45l88 99l-33 36l33 31l78 154l-93 145h-32l-41 -12l-70 -55v-56l-22 -22l-9 -74h-24l-31 -111l-33 -14l-14 -66l-41 -45l-70 -77l-41 -19l9 -14l-23 -23z M190 -203l9 -8l14 -47h41l47 22l8 15h33l23 -23v-14l14 -55l10 -41l31 55h24l86 -55l15 55h-23l-47 33l-8 8l-47 22l-23 -22l-41 47l-14 31l-55 33l-41 -41zM453 1004l55 -56v-33h37l33 -14l55 14l55 56l23 78l-23 18v37h-24l-101 55l-88 -45zM711 -158v-45l18 -18l14 -15 l97 -55l37 25l63 174l10 37h13v32h-13l-10 9v47l-63 41l-15 -11h-63l-56 -55l23 -100z" />
<glyph unicode="&#xc0;" horiz-adv-x="1294" d="M61 23l33 -9v-37l56 -40l8 8l32 -33l70 25l78 55l33 96l8 68l14 43l8 67l88 88h291l86 -63v-55l43 -103v-55l23 -23l-23 -22l23 -10l14 -31l64 -33v-22l77 -15l41 23v47l25 22l23 74l-23 133l-33 23l8 47l-18 18l-12 78l-11 14l11 31l-33 88l-8 64l-15 14v23l15 10 l-37 55l-66 252l-8 55l-14 70l-23 18l-10 70h-22l-11 8v33l11 55l-56 92l23 41h-8l-15 15l-33 18v78l-22 33l-66 14l-30 23l-47 -37h-101l-41 -33v-78l-55 -166l-47 -63l-8 -56l-56 -157l-24 -97l-53 -165v-70l-80 -152l-8 -86l-23 -47l-33 -143l-22 -133zM391 1923l67 -111 l99 -70l37 -86l86 -43v-22l88 10l45 68l10 -13v23l22 45l-32 96l-56 33v47l-36 23l-9 41h-45l-143 47l-41 -10l-80 -46zM545 764l33 88l45 55v64h10l37 78l30 -31v-88l11 -70l14 -8v-10l-25 -23l33 -69l10 -9l23 -22l-10 -33l-68 -55l-110 8l22 47l14 8z" />
<glyph unicode="&#xc1;" horiz-adv-x="1294" d="M61 23l33 -9v-37l56 -40l8 8l32 -33l70 25l78 55l33 96l8 68l14 43l8 67l88 88h291l86 -63v-55l43 -103v-55l23 -23l-23 -22l23 -10l14 -31l64 -33v-22l77 -15l41 23v47l25 22l23 74l-23 133l-33 23l8 47l-18 18l-12 78l-11 14l11 31l-33 88l-8 64l-15 14v23l15 10 l-37 55l-66 252l-8 55l-14 70l-23 18l-10 70h-22l-11 8v33l11 55l-56 92l23 41h-8l-15 15l-33 18v78l-22 33l-66 14l-30 23l-47 -37h-101l-41 -33v-78l-55 -166l-47 -63l-8 -56l-56 -157l-24 -97l-53 -165v-70l-80 -152l-8 -86l-23 -47l-33 -143l-22 -133zM430 1778l23 -134 l41 -43l14 11h41l69 45h33l55 65l9 -10l55 66l70 100l8 -14l24 24l-10 8v15l33 32l-33 46l-110 10l-56 -10l-100 -56l-55 -55l-11 -37h-45l-22 -18zM545 764l33 88l45 55v64h10l37 78l30 -31v-88l11 -70l14 -8v-10l-25 -23l33 -69l10 -9l23 -22l-10 -33l-68 -55l-110 8 l22 47l14 8z" />
<glyph unicode="&#xc2;" horiz-adv-x="1294" d="M61 23l33 -9v-37l56 -40l8 8l32 -33l70 25l78 55l33 96l8 68l14 43l8 67l88 88h291l86 -63v-55l43 -103v-55l23 -23l-23 -22l23 -10l14 -31l64 -33v-22l77 -15l41 23v47l25 22l23 74l-23 133l-33 23l8 47l-18 18l-12 78l-11 14l11 31l-33 88l-8 64l-15 14v23l15 10 l-37 55l-66 252l-8 55l-14 70l-23 18l-10 70h-22l-11 8v33l11 55l-56 92l23 41h-8l-15 15l-33 18v78l-22 33l-66 14l-30 23l-47 -37h-101l-41 -33v-78l-55 -166l-47 -63l-8 -56l-56 -157l-24 -97l-53 -165v-70l-80 -152l-8 -86l-23 -47l-33 -143l-22 -133zM295 1640l8 -26 l25 -39l41 -17l28 -8l29 12l45 31l21 27l26 12v16l47 64v16l29 39l31 33l39 6l30 -27l23 -22l16 -25l4 -34l19 -27l-2 -23l16 -26l2 -25l29 -20l37 -2l41 -21l41 6l28 19l11 24l20 52l10 43l-28 55l-47 43v22l-48 21l-18 72l-8 16l8 25l-47 36l-68 27l-92 -23l-67 -26 l-27 -6v-8l-68 -25l13 -16l-47 -17v-18l-29 -17l-10 -34l-29 -29l-27 -47l-35 -53v-27zM545 764l33 88l45 55v64h10l37 78l30 -31v-88l11 -70l14 -8v-10l-25 -23l33 -69l10 -9l23 -22l-10 -33l-68 -55l-110 8l22 47l14 8z" />
<glyph unicode="&#xc3;" horiz-adv-x="1294" d="M61 23l33 -9v-37l56 -40l8 8l32 -33l70 25l78 55l33 96l8 68l14 43l8 67l88 88h291l86 -63v-55l43 -103v-55l23 -23l-23 -22l23 -10l14 -31l64 -33v-22l77 -15l41 23v47l25 22l23 74l-23 133l-33 23l8 47l-18 18l-12 78l-11 14l11 31l-33 88l-8 64l-15 14v23l15 10 l-37 55l-66 252l-8 55l-14 70l-23 18l-10 70h-22l-11 8v33l11 55l-56 92l23 41h-8l-15 15l-33 18v78l-22 33l-66 14l-30 23l-47 -37h-101l-41 -33v-78l-55 -166l-47 -63l-8 -56l-56 -157l-24 -97l-53 -165v-70l-80 -152l-8 -86l-23 -47l-33 -143l-22 -133zM194 1753l6 -69 h37l12 -6l13 12l20 -43l55 14l3 -14l86 29l94 12l12 -29l55 -10l86 -33l76 -10l148 -16l73 18l58 121l2 -10l67 18l-8 6l16 90l-30 13l-6 10l8 20l-47 4l-13 -8l-14 29l4 10l-31 12l-127 -86l-98 11l-119 43l-8 28l-76 -10l-61 16l-59 -2l-60 -26l-53 14l-45 -24l-23 -105 l-10 -2l-22 8zM545 764l33 88l45 55v64h10l37 78l30 -31v-88l11 -70l14 -8v-10l-25 -23l33 -69l10 -9l23 -22l-10 -33l-68 -55l-110 8l22 47l14 8z" />
<glyph unicode="&#xc4;" horiz-adv-x="1294" d="M61 23l33 -9v-37l56 -40l8 8l32 -33l70 25l78 55l33 96l8 68l14 43l8 67l88 88h291l86 -63v-55l43 -103v-55l23 -23l-23 -22l23 -10l14 -31l64 -33v-22l77 -15l41 23v47l25 22l23 74l-23 133l-33 23l8 47l-18 18l-12 78l-11 14l11 31l-33 88l-8 64l-15 14v23l15 10 l-37 55l-66 252l-8 55l-14 70l-23 18l-10 70h-22l-11 8v33l11 55l-56 92l23 41h-8l-15 15l-33 18v78l-22 33l-66 14l-30 23l-47 -37h-101l-41 -33v-78l-55 -166l-47 -63l-8 -56l-56 -157l-24 -97l-53 -165v-70l-80 -152l-8 -86l-23 -47l-33 -143l-22 -133zM317 1671l99 -70 l71 -12l62 59l22 55l33 23l-10 10v68l-23 55l-69 33l-31 22l-111 -55l13 -14l-56 -31v-143zM545 764l33 88l45 55v64h10l37 78l30 -31v-88l11 -70l14 -8v-10l-25 -23l33 -69l10 -9l23 -22l-10 -33l-68 -55l-110 8l22 47l14 8zM692 1748l23 -77l61 -88l86 6l74 26l63 56 l15 110l-56 78l-55 33l-78 8l-10 -8l-55 -14l-45 -41v-48z" />
<glyph unicode="&#xc5;" horiz-adv-x="1294" d="M61 23l33 -9v-37l56 -40l8 8l32 -33l70 25l78 55l33 96l8 68l14 43l8 67l88 88h291l86 -63v-55l43 -103v-55l23 -23l-23 -22l23 -10l14 -31l64 -33v-22l77 -15l41 23v47l25 22l23 74l-23 133l-33 23l8 47l-18 18l-12 78l-11 14l11 31l-33 88l-8 64l-15 14v23l15 10 l-37 55l-66 252l-8 55l-14 70l-23 18l-10 70h-22l-11 8v33l11 55l-56 92l23 41h-8l-15 15l-33 18v78l-22 33l-66 14l-30 23l-47 -37h-101l-41 -33v-78l-55 -166l-47 -63l-8 -56l-56 -157l-24 -97l-53 -165v-70l-80 -152l-8 -86l-23 -47l-33 -143l-22 -133zM389 1592l25 -58 l84 -38l10 -15l35 8l45 -12l33 12l10 -8h80l71 27l11 18l32 13l21 38l39 23l-12 53l18 10v39l-45 33l39 25v67l-21 13l-8 18l-35 12v15l-53 26l-90 6v7l-37 10l-20 -10l-43 -23l-56 -16l-8 6l-35 -8v-35l-28 -21v-20l-15 -25l-28 -8l-11 -78l-8 -37v-67zM537 1682l16 47 l-14 27l30 20l31 10l35 17l45 -4l27 -29l22 -23l2 -28l21 -13l-21 -20l-2 -53l-26 -31l-48 -18h-43l-53 18l-14 51zM545 764l33 88l45 55v64h10l37 78l30 -31v-88l11 -70l14 -8v-10l-25 -23l33 -69l10 -9l23 -22l-10 -33l-68 -55l-110 8l22 47l14 8z" />
<glyph unicode="&#xc6;" horiz-adv-x="1898" d="M66 23l30 -9l-10 -37l45 -40l10 8l23 -33l78 25l92 55l59 96l25 68l26 43l27 67l111 88h290l70 -63l-14 -55l14 -103l-14 -55l16 -23l-29 -22l21 -10l6 -31l21 -33l30 2l21 -16l71 4l27 4l35 6l22 23l33 -15l68 25l65 12l23 -22h22l56 41l41 -19l213 -12l86 31v24l24 31 v102l-10 8l-92 48l-8 -11h-66l-55 11v8l-15 -8h-22l-33 -11l-86 19l-33 -33h-14l-86 14v11l-10 -11l-45 56l12 10l-23 8v14l11 9v79l-11 134l23 40l-23 70l23 23l-12 8l22 24h33l86 9h78h110l103 55l8 55v70l-55 55l-8 -14l-23 33h-33l8 -11l-22 -22l-252 -10l-43 43l-23 45 l11 77h12l-23 80v142h78l33 -15h174l47 25l41 -25l70 25l22 22l11 -10l30 33l25 33l-33 63l8 15l-86 32l-24 -22l-23 22l-18 -22l-23 22l-102 8l-41 25v-10l-100 -15h-78l-37 -30l-31 30l-55 -8l-17 -10l-12 29h-45l-98 -11l-51 -22l-21 -78l-100 -166l-64 -63l-22 -56 l-99 -157l-51 -97l-96 -165l-18 -70l-121 -152l-31 -86l-37 -47l-69 -143l-60 -133zM748 639l34 47l17 8l-51 70l55 88l61 55l17 64h10l57 78l23 -31l-23 -88l-8 -70l10 -8l-2 -10l-30 -23l14 -69l8 -9l16 -22l-18 -33l-82 -55z" />
<glyph unicode="&#xc7;" horiz-adv-x="1302" d="M133 590h10l15 -15l8 -120l45 -119l18 -23v-14l93 -131l55 -68l65 -22l64 -64l35 -20l-4 -8l-7 -66l-8 -20l15 -33l-11 -23l13 -41l63 -16l25 -16l35 12l20 35l16 -39l25 -19h39l18 -26l4 -49l-28 -17l-17 -6l-26 2l-35 -6l-43 20l-39 -4l-29 13l-28 -21l-25 -47l-2 -51 l33 -25l49 -22l76 -6l57 14l45 -10l45 24l39 4l23 45l57 17l16 43l17 24l-2 21l6 51l-12 35l-19 39l-37 16l-24 41l-27 -10l-49 10l-49 8l-62 -16l-12 25l4 24v25l23 -8l18 22l111 8l102 70l8 8h23l47 47l8 55l78 78l10 56l23 41l-9 14l41 88h-10l-8 8v33l-14 70l-23 63 l-88 14l-78 -55l-18 -47l-15 -45v-64l-41 -55l11 -10l-33 -45h-23l-47 -55l-166 -11l-63 66l-10 -10l-92 120v31l-31 55l-10 15v55l-23 33l8 330l25 153l45 92l10 56l55 16v25l13 12l65 43l23 22l22 -22l11 12h22l78 10l74 -32l36 -70l33 -41l-14 -12h-8v-10h22v10l23 -19 l-15 -14l78 -33h103v23l41 24l14 72l-70 102h-32l-56 9l11 14l36 65l-92 46l-63 -23l-11 8v15h-36l-33 55h-31l-47 -23l-63 -10l-66 33l-23 -33h-22l-55 33l-47 -45l-41 -10l-15 -33h-18v-23l-12 -14h-43l-23 -64l-33 -22v-43l-45 -45l23 -23l-23 -22l-33 -66v-45l-45 -153 v-123l-10 -111l25 -18z" />
<glyph unicode="&#xc8;" d="M125 1055l14 -56l8 -14v-33l-8 -32l19 -78l12 -86l10 -111l-22 -55l12 -15l-23 -55h-8l19 -33v-77l12 -56l-23 -18l23 -78l10 -14l-22 -41l35 -56l-23 -55l-12 -88l45 -45l78 -55l22 22l33 -14l110 25l66 12l23 -23h22l55 41l41 -18l213 -12l86 30v25l25 31v102l-10 8 l-93 47l-8 -10h-65l-56 10v8l-14 -8h-22l-33 -10l-86 18l-33 -32h-14l-86 14v10l-11 -10l-45 55l13 11l-23 8v14l10 8v80l-10 133l23 41l-23 70l23 22l-13 9l23 24h33l86 8h78h110l103 56l8 55v70l-56 55l-8 -15l-22 33h-33l8 -10l-22 -23l-252 -10l-43 43l-23 45l10 78h13 l-23 80v141h78l33 -14h174l47 25l41 -25l70 25l22 22l10 -10l31 33l25 32l-33 64l8 14l-86 33l-25 -23l-22 23l-19 -23l-22 23l-102 8l-41 25v-10l-101 -15h-78l-79 -31l-31 31l-55 -8l-78 -47v-19l12 -12l-31 -88l19 -22l-19 -25l19 -31l-33 -96l22 -25l-22 -22v-8z M293 1874l67 -111l99 -70l37 -86l86 -43v-22l88 10l45 68l10 -13v23l22 45l-32 96l-56 33v47l-36 23l-9 41h-45l-143 47l-41 -10l-80 -46z" />
<glyph unicode="&#xc9;" d="M125 1055l14 -56l8 -14v-33l-8 -32l19 -78l12 -86l10 -111l-22 -55l12 -15l-23 -55h-8l19 -33v-77l12 -56l-23 -18l23 -78l10 -14l-22 -41l35 -56l-23 -55l-12 -88l45 -45l78 -55l22 22l33 -14l110 25l66 12l23 -23h22l55 41l41 -18l213 -12l86 30v25l25 31v102l-10 8 l-93 47l-8 -10h-65l-56 10v8l-14 -8h-22l-33 -10l-86 18l-33 -32h-14l-86 14v10l-11 -10l-45 55l13 11l-23 8v14l10 8v80l-10 133l23 41l-23 70l23 22l-13 9l23 24h33l86 8h78h110l103 56l8 55v70l-56 55l-8 -15l-22 33h-33l8 -10l-22 -23l-252 -10l-43 43l-23 45l10 78h13 l-23 80v141h78l33 -14h174l47 25l41 -25l70 25l22 22l10 -10l31 33l25 32l-33 64l8 14l-86 33l-25 -23l-22 23l-19 -23l-22 23l-102 8l-41 25v-10l-101 -15h-78l-79 -31l-31 31l-55 -8l-78 -47v-19l12 -12l-31 -88l19 -22l-19 -25l19 -31l-33 -96l22 -25l-22 -22v-8z M319 1729l23 -134l41 -43l14 11h41l69 45h33l55 65l9 -10l55 66l70 100l8 -14l24 24l-10 8v15l33 32l-33 46l-110 10l-56 -10l-100 -56l-55 -55l-11 -37h-45l-22 -18z" />
<glyph unicode="&#xca;" d="M125 1055l14 -56l8 -14v-33l-8 -32l19 -78l12 -86l10 -111l-22 -55l12 -15l-23 -55h-8l19 -33v-77l12 -56l-23 -18l23 -78l10 -14l-22 -41l35 -56l-23 -55l-12 -88l45 -45l78 -55l22 22l33 -14l110 25l66 12l23 -23h22l55 41l41 -18l213 -12l86 30v25l25 31v102l-10 8 l-93 47l-8 -10h-65l-56 10v8l-14 -8h-22l-33 -10l-86 18l-33 -32h-14l-86 14v10l-11 -10l-45 55l13 11l-23 8v14l10 8v80l-10 133l23 41l-23 70l23 22l-13 9l23 24h33l86 8h78h110l103 56l8 55v70l-56 55l-8 -15l-22 33h-33l8 -10l-22 -23l-252 -10l-43 43l-23 45l10 78h13 l-23 80v141h78l33 -14h174l47 25l41 -25l70 25l22 22l10 -10l31 33l25 32l-33 64l8 14l-86 33l-25 -23l-22 23l-19 -23l-22 23l-102 8l-41 25v-10l-101 -15h-78l-79 -31l-31 31l-55 -8l-78 -47v-19l12 -12l-31 -88l19 -22l-19 -25l19 -31l-33 -96l22 -25l-22 -22v-8z M197 1622l8 -26l25 -39l41 -17l28 -8l29 12l45 31l21 27l26 12v16l47 64v16l29 39l31 33l39 6l30 -27l23 -22l16 -25l4 -34l19 -27l-2 -23l16 -26l2 -25l29 -20l37 -2l41 -21l41 6l28 19l11 24l20 52l10 43l-28 55l-47 43v22l-48 21l-18 72l-8 16l8 25l-47 36l-68 27 l-92 -23l-67 -26l-27 -6v-8l-68 -25l13 -16l-47 -17v-18l-29 -17l-10 -34l-29 -29l-27 -47l-35 -53v-27z" />
<glyph unicode="&#xcb;" d="M125 1055l14 -56l8 -14v-33l-8 -32l19 -78l12 -86l10 -111l-22 -55l12 -15l-23 -55h-8l19 -33v-77l12 -56l-23 -18l23 -78l10 -14l-22 -41l35 -56l-23 -55l-12 -88l45 -45l78 -55l22 22l33 -14l110 25l66 12l23 -23h22l55 41l41 -18l213 -12l86 30v25l25 31v102l-10 8 l-93 47l-8 -10h-65l-56 10v8l-14 -8h-22l-33 -10l-86 18l-33 -32h-14l-86 14v10l-11 -10l-45 55l13 11l-23 8v14l10 8v80l-10 133l23 41l-23 70l23 22l-13 9l23 24h33l86 8h78h110l103 56l8 55v70l-56 55l-8 -15l-22 33h-33l8 -10l-22 -23l-252 -10l-43 43l-23 45l10 78h13 l-23 80v141h78l33 -14h174l47 25l41 -25l70 25l22 22l10 -10l31 33l25 32l-33 64l8 14l-86 33l-25 -23l-22 23l-19 -23l-22 23l-102 8l-41 25v-10l-101 -15h-78l-79 -31l-31 31l-55 -8l-78 -47v-19l12 -12l-31 -88l19 -22l-19 -25l19 -31l-33 -96l22 -25l-22 -22v-8z M200 1622l99 -70l71 -12l62 59l22 55l33 23l-10 10v68l-23 55l-69 33l-31 22l-111 -55l13 -14l-56 -31v-143zM575 1699l23 -77l61 -88l86 6l74 26l63 56l15 110l-56 78l-55 33l-78 8l-10 -8l-55 -14l-45 -41v-48z" />
<glyph unicode="&#xcc;" horiz-adv-x="692" d="M115 1874l67 -111l99 -70l37 -86l86 -43v-22l88 10l45 68l10 -13v23l22 45l-32 96l-56 33v47l-36 23l-9 41h-45l-143 47l-41 -10l-80 -46zM193 401l22 -24l-12 -64l22 -69l-10 -8l33 -48v-63l-15 -121l80 -92h31l78 25l55 77l-8 277l33 22v23l8 88l-18 22l10 9h22 l-32 176l-23 55l23 23l-15 14l25 55l-25 19l15 14l10 53l8 121l-33 33l15 67h10l8 222l-41 143h-23l-24 45l-86 10l-47 -10l-41 -111l22 -55l-37 -37h-8l-10 -108l43 -121l-25 -23l15 -133l-23 -18v-203v-111l-22 -32l12 -8l-22 -48l22 -22l-12 -10z" />
<glyph unicode="&#xcd;" horiz-adv-x="692" d="M193 401l22 -24l-12 -64l22 -69l-10 -8l33 -48v-63l-15 -121l80 -92h31l78 25l55 77l-8 277l33 22v23l8 88l-18 22l10 9h22l-32 176l-23 55l23 23l-15 14l25 55l-25 19l15 14l10 53l8 121l-33 33l15 67h10l8 222l-41 143h-23l-24 45l-86 10l-47 -10l-41 -111l22 -55 l-37 -37h-8l-10 -108l43 -121l-25 -23l15 -133l-23 -18v-203v-111l-22 -32l12 -8l-22 -48l22 -22l-12 -10zM227 1729l23 -134l41 -43l14 11h41l69 45h33l55 65l9 -10l55 66l70 100l8 -14l24 24l-10 8v15l33 32l-33 46l-110 10l-56 -10l-100 -56l-55 -55l-11 -37h-45l-22 -18 z" />
<glyph unicode="&#xce;" horiz-adv-x="692" d="M39 1622l8 -26l25 -39l41 -17l28 -8l29 12l45 31l21 27l26 12v16l47 64v16l29 39l31 33l39 6l30 -27l23 -22l16 -25l4 -34l19 -27l-2 -23l16 -26l2 -25l29 -20l37 -2l41 -21l41 6l28 19l11 24l20 52l10 43l-28 55l-47 43v22l-48 21l-18 72l-8 16l8 25l-47 36l-68 27 l-92 -23l-67 -26l-27 -6v-8l-68 -25l13 -16l-47 -17v-18l-29 -17l-10 -34l-29 -29l-27 -47l-35 -53v-27zM193 401l22 -24l-12 -64l22 -69l-10 -8l33 -48v-63l-15 -121l80 -92h31l78 25l55 77l-8 277l33 22v23l8 88l-18 22l10 9h22l-32 176l-23 55l23 23l-15 14l25 55l-25 19 l15 14l10 53l8 121l-33 33l15 67h10l8 222l-41 143h-23l-24 45l-86 10l-47 -10l-41 -111l22 -55l-37 -37h-8l-10 -108l43 -121l-25 -23l15 -133l-23 -18v-203v-111l-22 -32l12 -8l-22 -48l22 -22l-12 -10z" />
<glyph unicode="&#xcf;" horiz-adv-x="692" d="M0 1671l99 -70l71 -12l62 59l22 55l33 23l-10 10v68l-23 55l-69 33l-31 22l-111 -55l13 -14l-56 -31v-143zM193 401l22 -24l-12 -64l22 -69l-10 -8l33 -48v-63l-15 -121l80 -92h31l78 25l55 77l-8 277l33 22v23l8 88l-18 22l10 9h22l-32 176l-23 55l23 23l-15 14l25 55 l-25 19l15 14l10 53l8 121l-33 33l15 67h10l8 222l-41 143h-23l-24 45l-86 10l-47 -10l-41 -111l22 -55l-37 -37h-8l-10 -108l43 -121l-25 -23l15 -133l-23 -18v-203v-111l-22 -32l12 -8l-22 -48l22 -22l-12 -10zM375 1748l23 -77l61 -88l86 6l74 26l63 56l15 110l-56 78 l-55 33l-78 8l-10 -8l-55 -14l-45 -41v-48z" />
<glyph unicode="&#xd1;" horiz-adv-x="1308" d="M127 193l14 -31l11 -88l45 -70l96 -18l102 73v47l23 23l-15 78v121l-8 86l-10 14v33l-14 41l24 37l8 63l-18 47l10 8l8 88l-18 56l33 69l33 -14l110 -143l8 -86l47 -70l23 -63l88 -177l86 -133l14 -88l33 -22v-70l31 -31l65 13l37 -37l41 14l111 33l-8 8l30 92l-8 10v101 l-22 65l-15 111l-10 8l10 15v8l15 133l8 221h14v55l-22 25l8 473h14v33l-22 100l-25 23v18l-45 25l-55 22l-88 -47v-31l-9 -43h-14v-37l14 -30v-88l23 -33l-14 -156v-110l-33 -64l10 -14v-10l-10 -31l24 -70l9 -151l-33 -33l-86 88v31l-47 47l14 33l-70 63l-8 47l-22 86 l-103 133v43l-55 45v33l-41 100l-47 78l-78 66l14 8h-22l-10 14l-111 11l-37 -43l-8 -93h-10v-30l10 -66l-33 -178v-121l23 -119l10 -14l-10 -133l-12 -152l-11 -55l11 -14v-33l-11 -41l-14 -125l25 -55l-25 -23v-32zM194 1753l6 -69h37l12 -6l13 12l20 -43l55 14l3 -14 l86 29l94 12l12 -29l55 -10l86 -33l76 -10l148 -16l73 18l58 121l2 -10l67 18l-8 6l16 90l-30 13l-6 10l8 20l-47 4l-13 -8l-14 29l4 10l-31 12l-127 -86l-98 11l-119 43l-8 28l-76 -10l-61 16l-59 -2l-60 -26l-53 14l-45 -24l-23 -105l-10 -2l-22 8z" />
<glyph unicode="&#xd2;" horiz-adv-x="1429" d="M133 737l23 -24v-133l32 -97l-22 -147l33 -64l55 -55l12 -47h33l8 -8l25 -56l55 -22l45 -80l55 -31h78l19 -24l243 -8l80 22l56 41l141 133l33 70l45 65l10 64l45 78l-8 32l18 78l15 189h22l-22 24v8l8 15l-23 33l23 55l-23 55l23 78l-41 86l8 10l-31 56l-14 14l14 8v10 h-24l-8 13l8 10l-31 45v33l-158 143l-30 12l-89 74l-180 14l-30 33l-56 -22l-88 -43l-65 10l-37 -33l-8 10l-88 -65l-33 -56h-23v-22l-78 -119l-8 -69h-14l14 -11v-22l-24 -23l-13 -254l23 -30zM387 627l12 30l-12 11v77l12 158l19 53l-8 11l22 22l-14 10l80 134v32l100 133 l133 31l10 14l56 -14l45 -31h18l37 -143l18 -45l15 12v-67l8 -43l33 -68v-110v-129l14 -78l-22 -47v-119l-25 -55l-31 -33l8 -37l-32 -41l-9 8l-32 -41l10 -14l-166 -78l-133 37l-98 121v63l-37 37v111zM416 1874l67 -111l99 -70l37 -86l86 -43v-22l88 10l45 68l10 -13v23 l22 45l-32 96l-56 33v47l-36 23l-9 41h-45l-143 47l-41 -10l-80 -46z" />
<glyph unicode="&#xd3;" horiz-adv-x="1429" d="M133 737l23 -24v-133l32 -97l-22 -147l33 -64l55 -55l12 -47h33l8 -8l25 -56l55 -22l45 -80l55 -31h78l19 -24l243 -8l80 22l56 41l141 133l33 70l45 65l10 64l45 78l-8 32l18 78l15 189h22l-22 24v8l8 15l-23 33l23 55l-23 55l23 78l-41 86l8 10l-31 56l-14 14l14 8v10 h-24l-8 13l8 10l-31 45v33l-158 143l-30 12l-89 74l-180 14l-30 33l-56 -22l-88 -43l-65 10l-37 -33l-8 10l-88 -65l-33 -56h-23v-22l-78 -119l-8 -69h-14l14 -11v-22l-24 -23l-13 -254l23 -30zM387 627l12 30l-12 11v77l12 158l19 53l-8 11l22 22l-14 10l80 134v32l100 133 l133 31l10 14l56 -14l45 -31h18l37 -143l18 -45l15 12v-67l8 -43l33 -68v-110v-129l14 -78l-22 -47v-119l-25 -55l-31 -33l8 -37l-32 -41l-9 8l-32 -41l10 -14l-166 -78l-133 37l-98 121v63l-37 37v111zM485 1729l23 -134l41 -43l14 11h41l69 45h33l55 65l9 -10l55 66 l70 100l8 -14l24 24l-10 8v15l33 32l-33 46l-110 10l-56 -10l-100 -56l-55 -55l-11 -37h-45l-22 -18z" />
<glyph unicode="&#xd4;" horiz-adv-x="1429" d="M133 737l23 -24v-133l32 -97l-22 -147l33 -64l55 -55l12 -47h33l8 -8l25 -56l55 -22l45 -80l55 -31h78l19 -24l243 -8l80 22l56 41l141 133l33 70l45 65l10 64l45 78l-8 32l18 78l15 189h22l-22 24v8l8 15l-23 33l23 55l-23 55l23 78l-41 86l8 10l-31 56l-14 14l14 8v10 h-24l-8 13l8 10l-31 45v33l-158 143l-30 12l-89 74l-180 14l-30 33l-56 -22l-88 -43l-65 10l-37 -33l-8 10l-88 -65l-33 -56h-23v-22l-78 -119l-8 -69h-14l14 -11v-22l-24 -23l-13 -254l23 -30zM350 1659l8 -26l25 -39l41 -17l28 -8l29 12l45 31l21 27l26 12v16l47 64v16 l29 39l31 33l39 6l30 -27l23 -22l16 -25l4 -34l19 -27l-2 -23l16 -26l2 -25l29 -20l37 -2l41 -21l41 6l28 19l11 24l20 52l10 43l-28 55l-47 43v22l-48 21l-18 72l-8 16l8 25l-47 36l-68 27l-92 -23l-67 -26l-27 -6v-8l-68 -25l13 -16l-47 -17v-18l-29 -17l-10 -34l-29 -29 l-27 -47l-35 -53v-27zM387 627l12 30l-12 11v77l12 158l19 53l-8 11l22 22l-14 10l80 134v32l100 133l133 31l10 14l56 -14l45 -31h18l37 -143l18 -45l15 12v-67l8 -43l33 -68v-110v-129l14 -78l-22 -47v-119l-25 -55l-31 -33l8 -37l-32 -41l-9 8l-32 -41l10 -14l-166 -78 l-133 37l-98 121v63l-37 37v111z" />
<glyph unicode="&#xd5;" horiz-adv-x="1429" d="M133 737l23 -24v-133l32 -97l-22 -147l33 -64l55 -55l12 -47h33l8 -8l25 -56l55 -22l45 -80l55 -31h78l19 -24l243 -8l80 22l56 41l141 133l33 70l45 65l10 64l45 78l-8 32l18 78l15 189h22l-22 24v8l8 15l-23 33l23 55l-23 55l23 78l-41 86l8 10l-31 56l-14 14l14 8v10 h-24l-8 13l8 10l-31 45v33l-158 143l-30 12l-89 74l-180 14l-30 33l-56 -22l-88 -43l-65 10l-37 -33l-8 10l-88 -65l-33 -56h-23v-22l-78 -119l-8 -69h-14l14 -11v-22l-24 -23l-13 -254l23 -30zM225 1740l6 -69h37l12 -6l13 12l20 -43l55 14l3 -14l86 29l94 12l12 -29 l55 -10l86 -33l76 -10l148 -16l73 18l58 121l2 -10l67 18l-8 6l16 90l-30 13l-6 10l8 20l-47 4l-13 -8l-14 29l4 10l-31 12l-127 -86l-98 11l-119 43l-8 28l-76 -10l-61 16l-59 -2l-60 -26l-53 14l-45 -24l-23 -105l-10 -2l-22 8zM387 627l12 30l-12 11v77l12 158l19 53 l-8 11l22 22l-14 10l80 134v32l100 133l133 31l10 14l56 -14l45 -31h18l37 -143l18 -45l15 12v-67l8 -43l33 -68v-110v-129l14 -78l-22 -47v-119l-25 -55l-31 -33l8 -37l-32 -41l-9 8l-32 -41l10 -14l-166 -78l-133 37l-98 121v63l-37 37v111z" />
<glyph unicode="&#xd6;" horiz-adv-x="1429" d="M133 737l23 -24v-133l32 -97l-22 -147l33 -64l55 -55l12 -47h33l8 -8l25 -56l55 -22l45 -80l55 -31h78l19 -24l243 -8l80 22l56 41l141 133l33 70l45 65l10 64l45 78l-8 32l18 78l15 189h22l-22 24v8l8 15l-23 33l23 55l-23 55l23 78l-41 86l8 10l-31 56l-14 14l14 8v10 h-24l-8 13l8 10l-31 45v33l-158 143l-30 12l-89 74l-180 14l-30 33l-56 -22l-88 -43l-65 10l-37 -33l-8 10l-88 -65l-33 -56h-23v-22l-78 -119l-8 -69h-14l14 -11v-22l-24 -23l-13 -254l23 -30zM354 1671l99 -70l71 -12l62 59l22 55l33 23l-10 10v68l-23 55l-69 33l-31 22 l-111 -55l13 -14l-56 -31v-143zM387 627l12 30l-12 11v77l12 158l19 53l-8 11l22 22l-14 10l80 134v32l100 133l133 31l10 14l56 -14l45 -31h18l37 -143l18 -45l15 12v-67l8 -43l33 -68v-110v-129l14 -78l-22 -47v-119l-25 -55l-31 -33l8 -37l-32 -41l-9 8l-32 -41l10 -14 l-166 -78l-133 37l-98 121v63l-37 37v111zM729 1748l23 -77l61 -88l86 6l74 26l63 56l15 110l-56 78l-55 33l-78 8l-10 -8l-55 -14l-45 -41v-48z" />
<glyph unicode="&#xd8;" horiz-adv-x="1429" d="M133 737l23 -24v-133l32 -97l-22 -147l33 -64l55 -55l12 -47h33l8 -8l12 -29l-49 -149l31 -31l10 -55h33l92 -15l56 33v37l8 20h65l19 -24l243 -8l80 22l56 41l141 133l33 70l45 65l10 64l45 78l-8 32l18 78l15 189h22l-22 24v8l8 15l-23 33l23 55l-23 55l23 78l-41 86 l8 10l-31 56l-14 14l14 8v10h-24l-8 13l8 10l-31 45v33l-152 137l64 145l12 -8l10 55l-22 19l-25 -33h-30l-11 -33l-32 -8l10 -14l-23 -23h-10l-24 -45l-44 37l-180 14l-30 33l-56 -22l-88 -43l-65 10l-37 -33l-8 10l-88 -65l-33 -56h-23v-22l-78 -119l-8 -69h-14l14 -11 v-22l-24 -23l-13 -254l23 -30zM371 621l14 30l-14 13v79l14 166l18 58l-8 10l23 22l-15 13l84 139v35l105 139l141 33l10 14l58 -14l47 -33h6l10 -33l-65 -92l-15 -70l-30 -18v-100l-25 -25v-8v-14l-31 -64h-22l-55 -80l-74 -133l-37 -55l-43 -41v-33l-12 -45h-11v-33 l-8 -32h-14v-37l-6 -13l-13 13v114zM565 248l37 22l-14 15l55 41l23 55l-23 31l23 24l45 86l10 47h8l25 111l-25 45l25 18v48l45 55v45l65 96l-10 14v11l41 55l14 78l6 6l11 -25l16 15v-72l8 -45l35 -72v-114v-138l14 -79l-24 -52v-125l-25 -57l-32 -35l8 -39l-35 -43l-8 11 l-35 -43l12 -17l-174 -82l-102 29z" />
<glyph unicode="&#xd9;" horiz-adv-x="1282" d="M139 346l33 -110l68 -142l65 -47l-10 -8l41 -37h47l33 -33l55 15l31 -23l80 -14l155 -10l33 24v41l141 14l15 9h32l64 133h33l45 78v98l47 92l8 119l-45 33l-18 77l32 64l-14 203h-18l-15 -15l-41 47v23l-55 74l33 36l55 97l-22 24v56l22 45l8 55l-8 8l-22 66l8 14 l-19 64l-45 14l-33 -70l-22 -33v-77l-25 -33l25 -78l-33 -22l8 -9v-55l25 -47l8 -8l-8 -66l-10 -92l10 -8v-33l-10 -100h-15v-33l70 -47v-19l-45 -12l-33 -55l-14 12v-67h-8v-33l-11 -33l-14 -123v-55l-111 -154h-118v-12l-45 -10l-80 78l-8 43l-11 -11l-22 23v10l10 14 l-25 31v98v211l15 33l-33 31l33 110l-23 37l33 74l-10 55l22 37l-12 10v119v70v141h12l-22 47l22 19v14l-37 31l-30 24v31h-43l-13 -8h-65l-68 -78l-10 -199l-8 -77l-14 -78l22 -33l-8 -14l-14 -33v-64l-23 -254l12 -92l-22 -18h-8v-37l8 -86zM459 1874l67 -111l99 -70 l37 -86l86 -43v-22l88 10l45 68l10 -13v23l22 45l-32 96l-56 33v47l-36 23l-9 41h-45l-143 47l-41 -10l-80 -46z" />
<glyph unicode="&#xda;" horiz-adv-x="1282" d="M139 346l33 -110l68 -142l65 -47l-10 -8l41 -37h47l33 -33l55 15l31 -23l80 -14l155 -10l33 24v41l141 14l15 9h32l64 133h33l45 78v98l47 92l8 119l-45 33l-18 77l32 64l-14 203h-18l-15 -15l-41 47v23l-55 74l33 36l55 97l-22 24v56l22 45l8 55l-8 8l-22 66l8 14 l-19 64l-45 14l-33 -70l-22 -33v-77l-25 -33l25 -78l-33 -22l8 -9v-55l25 -47l8 -8l-8 -66l-10 -92l10 -8v-33l-10 -100h-15v-33l70 -47v-19l-45 -12l-33 -55l-14 12v-67h-8v-33l-11 -33l-14 -123v-55l-111 -154h-118v-12l-45 -10l-80 78l-8 43l-11 -11l-22 23v10l10 14 l-25 31v98v211l15 33l-33 31l33 110l-23 37l33 74l-10 55l22 37l-12 10v119v70v141h12l-22 47l22 19v14l-37 31l-30 24v31h-43l-13 -8h-65l-68 -78l-10 -199l-8 -77l-14 -78l22 -33l-8 -14l-14 -33v-64l-23 -254l12 -92l-22 -18h-8v-37l8 -86zM535 1711l23 -134l41 -43 l14 11h41l69 45h33l55 65l9 -10l55 66l70 100l8 -14l24 24l-10 8v15l33 32l-33 46l-110 10l-56 -10l-100 -56l-55 -55l-11 -37h-45l-22 -18z" />
<glyph unicode="&#xdb;" horiz-adv-x="1282" d="M139 346l33 -110l68 -142l65 -47l-10 -8l41 -37h47l33 -33l55 15l31 -23l80 -14l155 -10l33 24v41l141 14l15 9h32l64 133h33l45 78v98l47 92l8 119l-45 33l-18 77l32 64l-14 203h-18l-15 -15l-41 47v23l-55 74l33 36l55 97l-22 24v56l22 45l8 55l-8 8l-22 66l8 14 l-19 64l-45 14l-33 -70l-22 -33v-77l-25 -33l25 -78l-33 -22l8 -9v-55l25 -47l8 -8l-8 -66l-10 -92l10 -8v-33l-10 -100h-15v-33l70 -47v-19l-45 -12l-33 -55l-14 12v-67h-8v-33l-11 -33l-14 -123v-55l-111 -154h-118v-12l-45 -10l-80 78l-8 43l-11 -11l-22 23v10l10 14 l-25 31v98v211l15 33l-33 31l33 110l-23 37l33 74l-10 55l22 37l-12 10v119v70v141h12l-22 47l22 19v14l-37 31l-30 24v31h-43l-13 -8h-65l-68 -78l-10 -199l-8 -77l-14 -78l22 -33l-8 -14l-14 -33v-64l-23 -254l12 -92l-22 -18h-8v-37l8 -86zM332 1671l8 -26l25 -39l41 -17 l28 -8l29 12l45 31l21 27l26 12v16l47 64v16l29 39l31 33l39 6l30 -27l23 -22l16 -25l4 -34l19 -27l-2 -23l16 -26l2 -25l29 -20l37 -2l41 -21l41 6l28 19l11 24l20 52l10 43l-28 55l-47 43v22l-48 21l-18 72l-8 16l8 25l-47 36l-68 27l-92 -23l-67 -26l-27 -6v-8l-68 -25 l13 -16l-47 -17v-18l-29 -17l-10 -34l-29 -29l-27 -47l-35 -53v-27z" />
<glyph unicode="&#xdc;" horiz-adv-x="1282" d="M139 346l33 -110l68 -142l65 -47l-10 -8l41 -37h47l33 -33l55 15l31 -23l80 -14l155 -10l33 24v41l141 14l15 9h32l64 133h33l45 78v98l47 92l8 119l-45 33l-18 77l32 64l-14 203h-18l-15 -15l-41 47v23l-55 74l33 36l55 97l-22 24v56l22 45l8 55l-8 8l-22 66l8 14 l-19 64l-45 14l-33 -70l-22 -33v-77l-25 -33l25 -78l-33 -22l8 -9v-55l25 -47l8 -8l-8 -66l-10 -92l10 -8v-33l-10 -100h-15v-33l70 -47v-19l-45 -12l-33 -55l-14 12v-67h-8v-33l-11 -33l-14 -123v-55l-111 -154h-118v-12l-45 -10l-80 78l-8 43l-11 -11l-22 23v10l10 14 l-25 31v98v211l15 33l-33 31l33 110l-23 37l33 74l-10 55l22 37l-12 10v119v70v141h12l-22 47l22 19v14l-37 31l-30 24v31h-43l-13 -8h-65l-68 -78l-10 -199l-8 -77l-14 -78l22 -33l-8 -14l-14 -33v-64l-23 -254l12 -92l-22 -18h-8v-37l8 -86zM366 1671l99 -70l71 -12l62 59 l22 55l33 23l-10 10v68l-23 55l-69 33l-31 22l-111 -55l13 -14l-56 -31v-143zM741 1748l23 -77l61 -88l86 6l74 26l63 56l15 110l-56 78l-55 33l-78 8l-10 -8l-55 -14l-45 -41v-48z" />
<glyph unicode="&#xdf;" horiz-adv-x="1241" d="M96 500l29 -183l-14 -45l32 -65l-12 -68l27 -65l22 -64l37 -35l51 -12l54 8l24 62l33 33l-14 8l30 82l-6 161l23 89v32h-11l-36 148l4 94l-13 80l-10 8l19 47l-19 45l10 66l23 22l-14 41l-9 15l23 22l-70 88l84 62l8 90h43l86 55l41 -12l74 -13l80 -34l37 -76l-6 -117 l-80 -74l-84 -24l-51 -92l6 -56l-12 -55h61l31 -55l71 -13l86 2l50 -32l47 -17l20 -65l12 -8l-12 -25l12 -63l-67 -134l-35 -63l-84 -19l-8 -14l-70 45l15 10l-111 -6l-59 -65l-13 -96l25 -76l55 -19l78 -47l119 10l47 56l-2 -25l35 -37l14 62l55 -11l94 89l43 104l78 80 l-10 67l47 74l-24 68v112l-21 45l-10 33l-23 23l11 55h-19l-65 41l-62 45l-53 2h-23l-55 45l131 80l55 86v117l-12 129l-67 67l-56 56l-82 39l-67 6l-131 18l-115 -20l-88 -11l-96 -43l-39 -65l-58 -84l-32 -18v-56l22 -133l-37 -102l25 -23l-25 -55l-28 -86l20 -88v-47 l-33 -31l23 -33l6 -59z" />
<glyph unicode="&#xe0;" horiz-adv-x="1150" d="M127 653l37 -55l-14 -8l-9 -103v-86v-69l56 -56v-73l22 -23l19 -135l55 -53l69 -25l54 -55l10 14h70l41 19l32 -19l101 33l47 55l63 31l88 -86l13 8h55l33 25l-15 8v14l25 23v55l-98 119v55l-37 33v14l37 9v10h-23l-45 22v23l12 10h11l22 -18l10 8h13v33l-13 69l23 41 l8 55h14l11 78l-25 88l55 86l-18 25l-55 12l-45 -53l-64 8v8l41 103h23l8 -10v-13l102 13l8 10l15 -10h55v10h-14l-9 8l23 92l-78 66h-33l-77 -33l-88 -23l-13 -10l-43 10l-67 23l-74 10l-70 12l-32 -22l-78 -23v-22l-9 -10h-24l-8 10l-47 -80l-56 -86l11 -10l-19 -23l8 -33 l-22 -30l-64 -47v-33zM238 299l22 70l14 8h19l-10 -45l47 -33l41 -8l32 31l-55 79v64l23 22v48l22 18v166l10 -10l13 65l55 23h55l25 22l111 -8h63l23 16l10 -8v-33l-96 -67l-25 -19l25 -102l40 -63l-32 -93l-8 -88l-25 -78h-12l-11 -10v-30h-63l-37 -48l-111 48l-110 8z M315 756l23 41v-23l24 -18h-47zM459 1450l37 -23v-32l30 -70l56 -63l43 -11l37 -55l129 -55l77 55l13 74l-23 22l10 15l-24 10v8l14 14h10l-32 97h-33l-23 37l-143 40l-23 -22l-8 14h-14l-133 -32v-23zM537 907l14 31l8 -8h10v-23h-32z" />
<glyph unicode="&#xe1;" horiz-adv-x="1110" d="M125 455l55 -142l-33 -102l11 10l45 -41l-15 -33l-41 -14v-33h23l33 -8v19l10 14l31 -14l24 -41l31 -25v-31l-31 -55l56 -78h67l43 86h23l32 15l68 -56l18 -14l148 -8l33 33l32 86l9 47l-19 22l-14 41h-31l-10 14l-14 89l32 22l-8 8l-10 66l18 37l37 8v33l-14 55l47 14 l8 8h33l14 56l-22 32l-88 -10l-23 25l8 8v33l37 33l41 12l15 80l32 -15l88 45l31 66l-31 45h-32l-23 10v13l-10 55l-23 33l-69 10l-64 -43l-10 10l-55 -22l-93 30l-86 37l-135 -37v-18l-8 -12l-10 12l-92 -45v-23l-74 -96l10 -55h33l45 -47l41 -23v-22l-18 -33l-123 -23 l22 -43l-22 -22zM258 498l23 45l43 10l12 100v33l43 45l78 33l118 -33l37 -67h-14v-66l25 -55h8l22 -56l-86 -118l8 -56l56 -102l-111 -111h-18v11l-92 14h-31l-33 119l-10 88l-37 45l14 10l-14 14h-8l22 23l-14 8l-8 55l-10 11h-23zM424 1159l65 -63l101 22l55 23v33l41 55 l37 8v33l33 37l63 55l-22 55l-19 19l-100 14l-133 -88l-66 -45l-45 -80z" />
<glyph unicode="&#xe2;" horiz-adv-x="1271" d="M133 528l55 -141l13 -125l32 -63l33 -33l56 -92l45 -33l77 -41l33 8l23 -22h98l109 22l47 25l63 8l25 -23v-10h63l47 -45l9 14h14l55 9l64 55v70l-23 18v45h14l-22 111l-80 47l-8 151l22 23l-14 55l33 103v86l55 165h23l-9 11l31 30v56l25 37l-25 55h-63l-23 18h-110 l-23 -30h-47l-88 55h-55l-64 -55l10 -11l-32 -32h-11l-78 32v11l-55 12l-55 -23l-23 -32l-10 10v-23l-78 -43v-67l-67 -66v-55l-56 -55v-31l13 -25l-23 -22v-8l10 -56l-32 -80h-23zM356 1284l8 -26l25 -39l41 -17l28 -8l29 12l45 31l21 27l26 12v16l47 64v16l29 39l31 33 l39 6l30 -27l23 -22l16 -25l4 -34l19 -27l-2 -23l16 -26l2 -25l29 -20l37 -2l41 -21l41 6l28 19l11 24l20 52l10 43l-28 55l-47 43v22l-48 21l-18 72l-8 16l8 25l-47 36l-68 27l-92 -23l-67 -26l-27 -6v-8l-68 -25l13 -16l-47 -17v-18l-29 -17l-10 -34l-29 -29l-27 -47 l-35 -53v-27zM455 483l22 70v119h23l18 110l70 119l88 37v-23l63 -32v-23l37 -33l-14 -108v-135l-8 -101l-15 -41l-8 -36l-10 -11v-22l-14 14l-23 -37l-41 15l-100 -80h-25v47l-8 8l-23 47l-10 41v14z" />
<glyph unicode="&#xe3;" horiz-adv-x="1271" d="M133 528l55 -141l13 -125l32 -63l33 -33l56 -92l45 -33l77 -41l33 8l23 -22h98l109 22l47 25l63 8l25 -23v-10h63l47 -45l9 14h14l55 9l64 55v70l-23 18v45h14l-22 111l-80 47l-8 151l22 23l-14 55l33 103v86l55 165h23l-9 11l31 30v56l25 37l-25 55h-63l-23 18h-110 l-23 -30h-47l-88 55h-55l-64 -55l10 -11l-32 -32h-11l-78 32v11l-55 12l-55 -23l-23 -32l-10 10v-23l-78 -43v-67l-67 -66v-55l-56 -55v-31l13 -25l-23 -22v-8l10 -56l-32 -80h-23zM219 1366l6 -69h37l12 -6l13 12l20 -43l55 14l3 -14l86 29l94 12l12 -29l55 -10l86 -33 l76 -10l148 -16l73 18l58 121l2 -10l67 18l-8 6l16 90l-30 13l-6 10l8 20l-47 4l-13 -8l-14 29l4 10l-31 12l-127 -86l-98 11l-119 43l-8 28l-76 -10l-61 16l-59 -2l-60 -26l-53 14l-45 -24l-23 -105l-10 -2l-22 8zM455 483l22 70v119h23l18 110l70 119l88 37v-23l63 -32 v-23l37 -33l-14 -108v-135l-8 -101l-15 -41l-8 -36l-10 -11v-22l-14 14l-23 -37l-41 15l-100 -80h-25v47l-8 8l-23 47l-10 41v14z" />
<glyph unicode="&#xe4;" horiz-adv-x="1271" d="M133 528l55 -141l13 -125l32 -63l33 -33l56 -92l45 -33l77 -41l33 8l23 -22h98l109 22l47 25l63 8l25 -23v-10h63l47 -45l9 14h14l55 9l64 55v70l-23 18v45h14l-22 111l-80 47l-8 151l22 23l-14 55l33 103v86l55 165h23l-9 11l31 30v56l25 37l-25 55h-63l-23 18h-110 l-23 -30h-47l-88 55h-55l-64 -55l10 -11l-32 -32h-11l-78 32v11l-55 12l-55 -23l-23 -32l-10 10v-23l-78 -43v-67l-67 -66v-55l-56 -55v-31l13 -25l-23 -22v-8l10 -56l-32 -80h-23zM311 1309l99 -70l71 -12l62 59l22 55l33 23l-10 10v68l-23 55l-69 33l-31 22l-111 -55 l13 -14l-56 -31v-143zM455 483l22 70v119h23l18 110l70 119l88 37v-23l63 -32v-23l37 -33l-14 -108v-135l-8 -101l-15 -41l-8 -36l-10 -11v-22l-14 14l-23 -37l-41 15l-100 -80h-25v47l-8 8l-23 47l-10 41v14zM686 1386l23 -77l61 -88l86 6l74 26l63 56l15 110l-56 78 l-55 33l-78 8l-10 -8l-55 -14l-45 -41v-48z" />
<glyph unicode="&#xe5;" horiz-adv-x="1271" d="M133 528l55 -141l13 -125l32 -63l33 -33l56 -92l45 -33l77 -41l33 8l23 -22h98l109 22l47 25l63 8l25 -23v-10h63l47 -45l9 14h14l55 9l64 55v70l-23 18v45h14l-22 111l-80 47l-8 151l22 23l-14 55l33 103v86l55 165h23l-9 11l31 30v56l25 37l-25 55h-63l-23 18h-110 l-23 -30h-47l-88 55h-55l-64 -55l10 -11l-32 -32h-11l-78 32v11l-55 12l-55 -23l-23 -32l-10 10v-23l-78 -43v-67l-67 -66v-55l-56 -55v-31l13 -25l-23 -22v-8l10 -56l-32 -80h-23zM444 1321l25 -58l84 -38l10 -15l35 8l45 -12l33 12l10 -8h80l71 27l11 18l32 13l21 38 l39 23l-12 53l18 10v39l-45 33l39 25v67l-21 13l-8 18l-35 12v15l-53 26l-90 6v7l-37 10l-20 -10l-43 -23l-56 -16l-8 6l-35 -8v-35l-28 -21v-20l-15 -25l-28 -8l-11 -78l-8 -37v-67zM455 483l22 70v119h23l18 110l70 119l88 37v-23l63 -32v-23l37 -33l-14 -108v-135 l-8 -101l-15 -41l-8 -36l-10 -11v-22l-14 14l-23 -37l-41 15l-100 -80h-25v47l-8 8l-23 47l-10 41v14zM592 1411l16 47l-14 27l30 20l31 10l35 17l45 -4l27 -29l22 -23l2 -28l21 -13l-21 -20l-2 -53l-26 -31l-48 -18h-43l-53 18l-14 51z" />
<glyph unicode="&#xe6;" horiz-adv-x="1732" d="M113 352l16 -18l-12 -43l28 -35l-10 -10l33 -88l14 -19l-2 -14h8l21 -21l-8 -10l102 -78l-14 -10l194 -43l45 -16l146 33l84 98l49 10l45 -12l41 -27l25 -20h18l27 -2l20 -13h33l55 -22h111l22 -25l88 25l41 22l45 41l56 37l65 64v32l45 56l-55 133v55l55 33l10 33l37 45 l8 55v111l-8 47l19 30h-19l-14 11l14 30l-37 80h-18l-70 111l-55 22l-55 9l-144 55l-8 -8l-55 22l-156 -69l-10 -9l-41 -49l-37 -12l-8 29l-96 45l-111 14l-39 29l-86 14l-12 12l-25 -20h-55l-35 -25l-98 -18l-82 -51l6 -13l-22 -16l-6 -59l-37 -39l12 -35l8 10l12 -90 l80 -47l78 -49l-59 -60l-168 -57l-17 -41l-10 -8zM397 358v27l25 53l57 35l15 -10l41 16v-6l14 -10l8 10h14l95 -27l24 -98l-12 -49l-6 -31l-8 -30l-52 -19l-73 10l-45 27l-41 18l-29 31zM471 819l35 27l-10 10l51 33h33l6 -8h69l9 -17v-131l-175 -20zM1024 786l70 97l10 14 l45 23l88 -13l31 -55v-88l-31 -23l-55 45l-111 -22h-22zM1038 432l97 33l125 -23h18v-10l22 -22l15 14l-37 -47l-33 -31l15 -14l-23 -41l-78 22v9l-24 24h-78v8l-8 15z" />
<glyph unicode="&#xe7;" horiz-adv-x="1040" d="M121 584l24 -68v-74v-110v-70l45 -63l11 -33l22 -23l-10 -55h18l103 -102l37 -6l-4 -52l-9 -20l15 -33l-11 -22l13 -41l63 -17l25 -16l35 12l20 35l17 -39l24 -18h39l18 -27l5 -49l-29 -17l-17 -6l-26 2l-35 -6l-43 21l-39 -4l-29 12l-28 -21l-25 -47l-2 -51l33 -25 l49 -22l76 -6l57 14l45 -10l45 24l39 5l23 45l57 16l16 43l17 25l-2 20l6 51l-12 35l-19 39l-37 16l-24 41l-27 -10l-49 10l-49 9l-62 -17l-12 25l4 24v27h144l30 31l15 22l55 25l10 55l78 78l-14 8l22 55h15l32 66l-24 37l24 63h9l-33 56l-8 10l-93 55l-18 -18l-37 -56h-18 v-69l-37 -64h-19v-24l-14 -9h-23l-110 -69l-55 22l-19 -22l-22 22l-33 103l-12 8l12 25l-21 139l9 145l67 133l96 101l48 -37l8 14l69 -45l-14 -10v-31l102 -125l41 -10h70l23 25l-15 8l47 65v133l-24 23v63l-86 93l-56 18l-77 47l-144 -78l-22 13l-11 -13h-22l-14 13 l-56 10l-118 -70l-43 -104l-78 -80l10 -68z" />
<glyph unicode="&#xe8;" horiz-adv-x="1181" d="M129 401l23 -24l8 -31l10 -199l45 -14l25 -63l41 -15v-41l45 -14v-33l47 -55h30l111 -23v-8h43l37 23l8 -15v-8h33l14 8l64 -18l63 41v25l47 22l144 152v45l22 88h-10l-55 55l18 47l47 23l45 55v96l19 33l-9 22l-22 70l-43 152l-92 123l-74 65l-12 -10l-25 33l-8 65 l45 68l10 -13v23l23 45l-33 96l-55 33v47l-37 23l-8 41h-45l-144 47l-41 -10l-80 -46l-12 -32l68 -111l98 -70l37 -86l86 -43v-22l-23 -23l-143 9l-31 -31h-69l-111 -80l-41 -64l-14 9l-64 -142h-14l23 -88l-33 -133h-8v-88zM436 299l10 14v19h37l41 37l70 -23l63 8h56l8 -8 h14l-67 -70l-66 -65l-45 10l-10 -33l-33 15zM459 676v33l55 77l25 33l110 -63l31 -37l-12 -10l34 -33l-53 -45h-37l-18 22l-14 -8l-56 19h-55z" />
<glyph unicode="&#xe9;" horiz-adv-x="1136" d="M127 455l45 -68l-8 -10h-14l14 -8l8 -181l33 -41l-10 -55l88 -69v-23l45 -18l-13 -15v-8l68 -14l18 -19l15 11l121 8l22 37l141 -45l25 22h45l10 41h31l33 37l14 -14l33 22l55 111v47l-33 63l-55 33v47l78 23l55 110l19 74l-19 37l-14 141l-55 80l-9 31l-77 88h-33 l-47 45l-8 33l-125 22l-74 -22l-37 -23h-41l-78 -47l-47 -8v-23l-8 -10l-78 -14l-22 -19l-11 -53l-45 -80l13 -12l-45 -74l14 -125zM195 498v12l10 10l-10 15v18l32 -10v-56zM401 322l56 55l37 -23h18l14 15l97 -23l47 8v-8l8 -14l55 22l55 -8l-63 -55l-33 -15h-14l-8 -40 l-56 -80l-32 -23l-15 -22l-30 -19l-43 19l18 36l-63 64l8 33zM449 1262l22 -134l41 -43l14 11h41l70 45h33l55 65l8 -10l55 66l70 100l8 -14l25 24l-10 8v15l32 32l-32 46l-111 10l-55 -10l-101 -56l-55 -55l-10 -37h-45l-23 -18zM457 686l24 33l13 12v25l10 -15l22 23 l-14 10l92 -18l43 -56l-10 -36l-78 -33z" />
<glyph unicode="&#xea;" horiz-adv-x="1146" d="M127 543l23 -64l-15 -24v-68l47 -151h8l23 -56l55 -69v-33h25l100 -64h33l55 -22h111l22 -25l88 25l41 22l45 41l56 37l65 64v32l45 56l-55 133v55l55 33l11 33l36 45l9 55v111l-9 47l19 30h-19l-14 11l14 30l-36 80h-19l-69 111l-56 22l-55 9l-143 55l-9 -8l-55 22 l-156 -69l-10 -9l-69 -77l-9 12h-22v-23l-25 -55l-96 -133l-12 -156h-10v-18l-15 -15zM227 1247l8 -26l25 -39l41 -17l28 -8l29 12l45 31l21 27l26 12v16l47 64v16l29 39l31 33l39 6l30 -27l23 -22l16 -25l4 -34l19 -27l-2 -23l16 -26l2 -25l29 -20l37 -2l41 -21l41 6l28 19 l11 24l20 52l10 43l-28 55l-47 43v22l-48 21l-18 72l-8 16l8 25l-47 36l-68 27l-92 -23l-67 -26l-27 -6v-8l-68 -25l13 -16l-47 -17v-18l-29 -17l-10 -34l-29 -29l-27 -47l-35 -53v-27zM434 786l70 97l10 14l45 23l88 -13l31 -55v-88l-31 -23l-55 45l-111 -22h-22zM449 432 l96 33l125 -23h18v-10l23 -22l14 14l-37 -47l-33 -31l15 -14l-23 -41l-78 22v9l-24 24h-78v8l-8 15z" />
<glyph unicode="&#xeb;" horiz-adv-x="1181" d="M129 455l41 -54l-23 -55h-10l10 -14v-41l46 -47l-9 -8l56 -111l8 -14l133 -174l10 8l111 -64l86 -10l203 10l65 101l100 73l33 125l-33 111l19 22v33l78 109l-31 80l8 8h14v32l9 33l-23 68h-8l-33 110l-14 -12l-41 78l-14 45l-129 111l10 10v12l110 33l64 55l14 111 l-55 78l-55 32l-78 9l-10 -9l-56 -14l-45 -41v-47l-22 -41l22 -78l-78 -78l-32 9l-56 47l23 55l33 23l-11 10v67l-22 56l-70 32l-31 23l-110 -55l12 -15l-55 -30v-144l98 -69v-19l-24 -22l-9 -33h-32l-23 -68l-63 -96v-37l8 -33l-23 -22l-32 -66l-33 -155zM414 322v10l45 14 l55 31h55l66 -55l-10 -9l18 -22h37l41 41l14 -10l-37 -31h-30l-33 -55l8 -15v-10l-31 -31l-10 8l-33 -32l-55 24zM446 664l68 92l66 41v-11l63 -22l70 -45l-15 -55l-30 -19l-66 -14h-45l-98 22z" />
<glyph unicode="&#xec;" horiz-adv-x="624" d="M78 1395l67 -111l99 -70l37 -86l86 -43v-22l88 10l45 68l10 -13v23l22 45l-32 96l-56 33v47l-36 23l-9 41h-45l-143 47l-41 -10l-80 -46z" />
<glyph unicode="&#xed;" horiz-adv-x="624" d="M86 1262l23 -134l41 -43l14 11h41l69 45h33l55 65l9 -10l55 66l70 100l8 -14l24 24l-10 8v15l33 32l-33 46l-110 10l-56 -10l-100 -56l-55 -55l-11 -37h-45l-22 -18z" />
<glyph unicode="&#xee;" horiz-adv-x="624" d="M-66 1247l8 -26l25 -39l41 -17l28 -8l29 12l45 31l21 27l26 12v16l47 64v16l29 39l31 33l39 6l30 -27l23 -22l16 -25l4 -34l19 -27l-2 -23l16 -26l2 -25l29 -20l37 -2l41 -21l41 6l28 19l11 24l20 52l10 43l-28 55l-47 43v22l-48 21l-18 72l-8 16l8 25l-47 36l-68 27 l-92 -23l-67 -26l-27 -6v-8l-68 -25l13 -16l-47 -17v-18l-29 -17l-10 -34l-29 -29l-27 -47l-35 -53v-27z" />
<glyph unicode="&#xef;" horiz-adv-x="624" d="M-25 1309l99 -70l71 -12l62 59l22 55l33 23l-10 10v68l-23 55l-69 33l-31 22l-111 -55l13 -14l-56 -31v-143zM350 1386l23 -77l61 -88l86 6l74 26l63 56l15 110l-56 78l-55 33l-78 8l-10 -8l-55 -14l-45 -41v-48z" />
<glyph unicode="&#xf1;" horiz-adv-x="1085" d="M102 1312l6 -69h37l12 -6l13 12l20 -43l55 14l3 -14l86 29l94 12l12 -29l55 -10l86 -33l76 -10l148 -16l73 18l58 121l2 -10l67 18l-8 6l16 90l-30 13l-6 10l8 20l-47 4l-13 -8l-14 29l4 10l-31 12l-127 -86l-98 11l-119 43l-8 28l-76 -10l-61 16l-59 -2l-60 -26l-53 14 l-45 -24l-23 -105l-10 -2l-22 8zM123 14l55 -65l88 -8l41 18l15 14l10 -14l45 100l-23 33l23 23l-15 55l25 47l-25 31l25 24l-10 31l-15 10v33l15 78v68l22 18v25l-12 100l23 22v11l-23 22l12 10l19 56h14l64 123l102 -37l33 -19l55 -100l-10 -10l18 -23v-14l-18 -19v-45 l18 -65l-18 -23l-14 -243l-9 -56l23 -45l-23 -43v-164l56 -69h133l55 45l18 78l37 190l-37 64l15 10l22 92h9v31l-9 10v78v198l-14 13l-8 151l-15 -8l-63 64l8 14l-41 33l-78 32l-55 9v14l-65 8l-23 -22l-55 22v14l-33 -45l-14 9v-19l-23 -22h-18l-37 -15l-19 23l-45 69h-32 l-56 11v8l-33 -33v-31l-36 -24l-9 -96l-32 -68l-15 -199l-18 -32l10 -15l23 -141l-33 -41l18 -37l-18 -33l18 -120l-18 -23v-156z" />
<glyph unicode="&#xf2;" d="M125 492l33 -78l-25 -23l37 -96l-12 -55l22 -148l23 -55l8 14h14l74 -78l111 -24v-8h36l19 -15h133h47l64 47l14 -10l18 19h15l41 77h22v47l78 78v64l33 80l47 96l-14 12v135h14v19l-14 12l-11 66l-8 69l-14 56l-8 8l-15 45l-10 10l-45 111h-18l-15 8h-41l-147 69l-74 11 l-37 -25l-8 14l-102 11l-41 -43l-23 -37l-102 -64l-56 -133l15 -33l-33 -45l10 -10l-47 -143zM275 1395l67 -111l99 -70l37 -86l86 -43v-22l88 10l45 68l10 -13v23l22 45l-32 96l-56 33v47l-36 23l-9 41h-45l-143 47l-41 -10l-80 -46zM322 547l47 88v78l8 -13l33 56l133 78 l78 -23l55 -66l10 11l23 -43v-299l-9 -64v-47l-14 10l-55 -88l-41 -41l8 -14l-55 -8l-8 -15l-70 23h-8l-11 -8l-22 22h-47l-8 9l22 24l-55 78l10 74l-10 14z" />
<glyph unicode="&#xf3;" d="M125 492l33 -78l-25 -23l37 -96l-12 -55l22 -148l23 -55l8 14h14l74 -78l111 -24v-8h36l19 -15h133h47l64 47l14 -10l18 19h15l41 77h22v47l78 78v64l33 80l47 96l-14 12v135h14v19l-14 12l-11 66l-8 69l-14 56l-8 8l-15 45l-10 10l-45 111h-18l-15 8h-41l-147 69l-74 11 l-37 -25l-8 14l-102 11l-41 -43l-23 -37l-102 -64l-56 -133l15 -33l-33 -45l10 -10l-47 -143zM322 547l47 88v78l8 -13l33 56l133 78l78 -23l55 -66l10 11l23 -43v-299l-9 -64v-47l-14 10l-55 -88l-41 -41l8 -14l-55 -8l-8 -15l-70 23h-8l-11 -8l-22 22h-47l-8 9l22 24 l-55 78l10 74l-10 14zM356 1262l23 -134l41 -43l14 11h41l69 45h33l55 65l9 -10l55 66l70 100l8 -14l24 24l-10 8v15l33 32l-33 46l-110 10l-56 -10l-100 -56l-55 -55l-11 -37h-45l-22 -18z" />
<glyph unicode="&#xf4;" d="M125 492l33 -78l-25 -23l37 -96l-12 -55l22 -148l23 -55l8 14h14l74 -78l111 -24v-8h36l19 -15h133h47l64 47l14 -10l18 19h15l41 77h22v47l78 78v64l33 80l47 96l-14 12v135h14v19l-14 12l-11 66l-8 69l-14 56l-8 8l-15 45l-10 10l-45 111h-18l-15 8h-41l-147 69l-74 11 l-37 -25l-8 14l-102 11l-41 -43l-23 -37l-102 -64l-56 -133l15 -33l-33 -45l10 -10l-47 -143zM203 1224l8 -26l25 -39l41 -17l28 -8l29 12l45 31l21 27l26 12v16l47 64v16l29 39l31 33l39 6l30 -27l23 -22l16 -25l4 -34l19 -27l-2 -23l16 -26l2 -25l29 -20l37 -2l41 -21 l41 6l28 19l11 24l20 52l10 43l-28 55l-47 43v22l-48 21l-18 72l-8 16l8 25l-47 36l-68 27l-92 -23l-67 -26l-27 -6v-8l-68 -25l13 -16l-47 -17v-18l-29 -17l-10 -34l-29 -29l-27 -47l-35 -53v-27zM322 547l47 88v78l8 -13l33 56l133 78l78 -23l55 -66l10 11l23 -43v-299 l-9 -64v-47l-14 10l-55 -88l-41 -41l8 -14l-55 -8l-8 -15l-70 23h-8l-11 -8l-22 22h-47l-8 9l22 24l-55 78l10 74l-10 14z" />
<glyph unicode="&#xf5;" d="M84 1341l6 -69h37l12 -6l13 12l20 -43l55 14l3 -14l86 29l94 12l12 -29l55 -10l86 -33l76 -10l148 -16l73 18l58 121l2 -10l67 18l-8 6l16 90l-30 13l-6 10l8 20l-47 4l-13 -8l-14 29l4 10l-31 12l-127 -86l-98 11l-119 43l-8 28l-76 -10l-61 16l-59 -2l-60 -26l-53 14 l-45 -24l-23 -105l-10 -2l-22 8zM125 492l33 -78l-25 -23l37 -96l-12 -55l22 -148l23 -55l8 14h14l74 -78l111 -24v-8h36l19 -15h133h47l64 47l14 -10l18 19h15l41 77h22v47l78 78v64l33 80l47 96l-14 12v135h14v19l-14 12l-11 66l-8 69l-14 56l-8 8l-15 45l-10 10l-45 111 h-18l-15 8h-41l-147 69l-74 11l-37 -25l-8 14l-102 11l-41 -43l-23 -37l-102 -64l-56 -133l15 -33l-33 -45l10 -10l-47 -143zM322 547l47 88v78l8 -13l33 56l133 78l78 -23l55 -66l10 11l23 -43v-299l-9 -64v-47l-14 10l-55 -88l-41 -41l8 -14l-55 -8l-8 -15l-70 23h-8 l-11 -8l-22 22h-47l-8 9l22 24l-55 78l10 74l-10 14z" />
<glyph unicode="&#xf6;" d="M125 492l33 -78l-25 -23l37 -96l-12 -55l22 -148l23 -55l8 14h14l74 -78l111 -24v-8h36l19 -15h133h47l64 47l14 -10l18 19h15l41 77h22v47l78 78v64l33 80l47 96l-14 12v135h14v19l-14 12l-11 66l-8 69l-14 56l-8 8l-15 45l-10 10l-45 111h-18l-15 8h-41l-147 69l-74 11 l-37 -25l-8 14l-102 11l-41 -43l-23 -37l-102 -64l-56 -133l15 -33l-33 -45l10 -10l-47 -143zM188 1309l99 -70l71 -12l62 59l22 55l33 23l-10 10v68l-23 55l-69 33l-31 22l-111 -55l13 -14l-56 -31v-143zM322 547l47 88v78l8 -13l33 56l133 78l78 -23l55 -66l10 11l23 -43 v-299l-9 -64v-47l-14 10l-55 -88l-41 -41l8 -14l-55 -8l-8 -15l-70 23h-8l-11 -8l-22 22h-47l-8 9l22 24l-55 78l10 74l-10 14zM563 1386l23 -77l61 -88l86 6l74 26l63 56l15 110l-56 78l-55 33l-78 8l-10 -8l-55 -14l-45 -41v-48z" />
<glyph unicode="&#xf8;" d="M125 492l33 -78l-25 -23l37 -96l-12 -55l22 -148l23 -55l8 14h14l27 -26l-41 -119l27 -25l8 -47h28l78 -12l47 26v33l25 60h22l19 -15h133h47l64 47l14 -10l18 19h15l41 77h22v47l78 78v64l33 80l47 96l-14 12v135h14v19l-14 12l-11 66l-8 69l-14 56l-8 8l-15 45l-10 10 l-45 111h-18l-15 8l-37 -4l-6 4l-2 12l27 82l10 86l10 -8l8 47l-18 16l-20 -28h-27l-8 -27l-29 -8l8 -12l-18 -19h-8l-13 -63l31 -31l-14 -18l-21 11q-22 11 -40.5 19t-20.5 10l-74 11l-37 -25l-8 14l-102 11l-41 -43l-23 -37l-102 -64l-56 -133l15 -33l-33 -45l10 -10 l-47 -143zM295 567l53 103v88l10 -13l37 64l154 88l82 -27l-8 -4v-86l-21 -20h-8l8 -8v-13l-27 -53h-18l-47 -68l-64 -112l-30 -47l-37 -35v-29l-10 -37h-9v-28l-8 -29h-12v-31l-8 -16l-13 -8l-6 6l9 110l-11 17zM479 129l15 21l-13 12l47 35l19 47l-19 26l19 21l39 74l8 38 h8l21 95l-21 39l21 16v39l39 47v39l55 82l-8 12v8l10 15q2 0 11 -19l9 -18v-342l-10 -74v-53l-16 10l-64 -100l-47 -47l10 -17l-63 -10l-10 -16z" />
<glyph unicode="&#xf9;" horiz-adv-x="1161" d="M127 500l10 -11v-45l23 -98l-23 -67l56 -56l12 -88l74 -88h36l97 -78h32l78 15h103l96 41l78 -41l133 -15l47 23l-14 10l32 37l15 8l22 33l-14 47l-8 8v45l-56 66l-14 243l23 23l-23 25v8l-10 88l24 78v100l23 18v103l18 22l-10 88l-8 64l-70 70l-96 22l-100 -37l-11 -55 l-55 -74l19 -22l-9 -15l-10 -196l19 -43l-19 -23l19 -33l-9 -12v-221h-10v-41l-100 -147h-88l8 12v10l-23 23l-8 110l23 47l-23 41l23 45l8 97l14 36l-37 33v33l15 22l8 230l25 24l-11 9l11 14v8l-48 70l-55 41l-55 24l-64 9l-55 -41l-22 -33l-11 10l-8 -10l12 -8l7 8 l-11 -15l-14 -77l-31 -19v-37l13 -41v-55v-78l-23 -102l23 -197zM336 1487l67 -111l99 -70l37 -86l86 -43v-22l88 10l45 68l10 -13v23l22 45l-32 96l-56 33v47l-36 23l-9 41h-45l-143 47l-41 -10l-80 -46z" />
<glyph unicode="&#xfa;" horiz-adv-x="1161" d="M127 500l10 -11v-45l23 -98l-23 -67l56 -56l12 -88l74 -88h36l97 -78h32l78 15h103l96 41l78 -41l133 -15l47 23l-14 10l32 37l15 8l22 33l-14 47l-8 8v45l-56 66l-14 243l23 23l-23 25v8l-10 88l24 78v100l23 18v103l18 22l-10 88l-8 64l-70 70l-96 22l-100 -37l-11 -55 l-55 -74l19 -22l-9 -15l-10 -196l19 -43l-19 -23l19 -33l-9 -12v-221h-10v-41l-100 -147h-88l8 12v10l-23 23l-8 110l23 47l-23 41l23 45l8 97l14 36l-37 33v33l15 22l8 230l25 24l-11 9l11 14v8l-48 70l-55 41l-55 24l-64 9l-55 -41l-22 -33l-11 10l-8 -10l12 -8l7 8 l-11 -15l-14 -77l-31 -19v-37l13 -41v-55v-78l-23 -102l23 -197zM344 1385l23 -134l41 -43l14 11h41l69 45h33l55 65l9 -10l55 66l70 100l8 -14l24 24l-10 8v15l33 32l-33 46l-110 10l-56 -10l-100 -56l-55 -55l-11 -37h-45l-22 -18z" />
<glyph unicode="&#xfb;" horiz-adv-x="1161" d="M127 500l10 -11v-45l23 -98l-23 -67l56 -56l12 -88l74 -88h36l97 -78h32l78 15h103l96 41l78 -41l133 -15l47 23l-14 10l32 37l15 8l22 33l-14 47l-8 8v45l-56 66l-14 243l23 23l-23 25v8l-10 88l24 78v100l23 18v103l18 22l-10 88l-8 64l-70 70l-96 22l-100 -37l-11 -55 l-55 -74l19 -22l-9 -15l-10 -196l19 -43l-19 -23l19 -33l-9 -12v-221h-10v-41l-100 -147h-88l8 12v10l-23 23l-8 110l23 47l-23 41l23 45l8 97l14 36l-37 33v33l15 22l8 230l25 24l-11 9l11 14v8l-48 70l-55 41l-55 24l-64 9l-55 -41l-22 -33l-11 10l-8 -10l12 -8l7 8 l-11 -15l-14 -77l-31 -19v-37l13 -41v-55v-78l-23 -102l23 -197zM215 1308l8 -26l25 -39l41 -17l28 -8l29 12l45 31l21 27l26 12v16l47 64v16l29 39l31 33l39 6l30 -27l23 -22l16 -25l4 -34l19 -27l-2 -23l16 -26l2 -25l29 -20l37 -2l41 -21l41 6l28 19l11 24l20 52l10 43 l-28 55l-47 43v22l-48 21l-18 72l-8 16l8 25l-47 36l-68 27l-92 -23l-67 -26l-27 -6v-8l-68 -25l13 -16l-47 -17v-18l-29 -17l-10 -34l-29 -29l-27 -47l-35 -53v-27z" />
<glyph unicode="&#xfc;" horiz-adv-x="1161" d="M127 500l10 -11v-45l23 -98l-23 -67l56 -56l12 -88l74 -88h36l97 -78h32l78 15h103l96 41l78 -41l133 -15l47 23l-14 10l32 37l15 8l22 33l-14 47l-8 8v45l-56 66l-14 243l23 23l-23 25v8l-10 88l24 78v100l23 18v103l18 22l-10 88l-8 64l-70 70l-96 22l-100 -37l-11 -55 l-55 -74l19 -22l-9 -15l-10 -196l19 -43l-19 -23l19 -33l-9 -12v-221h-10v-41l-100 -147h-88l8 12v10l-23 23l-8 110l23 47l-23 41l23 45l8 97l14 36l-37 33v33l15 22l8 230l25 24l-11 9l11 14v8l-48 70l-55 41l-55 24l-64 9l-55 -41l-22 -33l-11 10l-8 -10l12 -8l7 8 l-11 -15l-14 -77l-31 -19v-37l13 -41v-55v-78l-23 -102l23 -197zM256 1327l99 -70l71 -12l62 59l22 55l33 23l-10 10v68l-23 55l-69 33l-31 22l-111 -55l13 -14l-56 -31v-143zM631 1404l23 -77l61 -88l86 6l74 26l63 56l15 110l-56 78l-55 33l-78 8l-10 -8l-55 -14l-45 -41 v-48z" />
<glyph unicode="&#xff;" horiz-adv-x="1206" d="M129 -166l23 -55l-13 -8l56 -47h211l22 -19l10 10h68l43 23l12 -14l19 22l47 14l22 41l96 166v47l48 97l-11 45l41 55l-8 33l33 32v37l31 33v31l14 33l18 32v68l56 55v33l37 33l18 110l55 56v86l-55 80l-55 30l-33 -30l-41 12l-111 -78l11 -55l-33 -31v-55l-45 -70 l12 -10l-37 -31v-70l-31 -32l13 -8l-37 -37l-64 55l9 12v25l-56 110l-8 64l-33 110h-22l-10 9v24l-56 68l-100 33l-33 -56l-45 -14l-10 -74l24 -78l31 -45l-22 -32l47 -78l-15 -10v-13l33 -33l-10 -10v-12l33 -43l14 -78l41 -45v-33l31 -32l-8 -9v-47l8 -8l-8 -47l63 -86 l-18 -125l-37 -33l-86 47l-66 9l-123 -78v-33zM268 1194l99 -70l71 -12l62 59l22 55l33 23l-10 10v68l-23 55l-69 33l-31 22l-111 -55l13 -14l-56 -31v-143zM643 1271l23 -77l61 -88l86 6l74 26l63 56l15 110l-56 78l-55 33l-78 8l-10 -8l-55 -14l-45 -41v-48z" />
<glyph unicode="&#x152;" horiz-adv-x="1892" d="M133 737l23 -24v-133l32 -97l-22 -147l33 -64l55 -55l12 -47h33l8 -8l25 -56l55 -22l45 -80l55 -31h78l19 -24l243 -8l80 22l56 41l38 2l48 -8l67 -45l23 22l32 -14l111 25l66 12l22 -23h23l55 41l41 -18l213 -12l86 30v25l24 31v102l-10 8l-92 47l-8 -10h-66l-55 10v9 l-14 -9h-23l-33 -10l-86 19l-32 -33h-15l-86 14v10l-10 -10l-45 55l12 11l-22 8v14l10 8v80l-10 133l22 41l-22 70l22 23l-12 8l23 24h32l86 8h78h111l102 56l8 55v70l-55 55l-8 -14l-23 32h-32l8 -10l-23 -22l-252 -11l-43 43l-22 45l10 78h12l-22 80v141h78l32 -14h174 l48 25l40 -25l70 25l23 22l10 -10l31 33l24 33l-33 63l9 14l-86 33l-25 -22l-23 22l-18 -22l-22 22l-103 8l-41 25v-10l-100 -15h-78l-80 -30l-31 30l-55 -8l-78 -47l-16 -10l-43 8l-60 45l-180 14l-30 33l-56 -22l-88 -43l-65 10l-37 -33l-8 10l-88 -65l-33 -56h-23v-22 l-78 -119l-8 -69h-14l14 -11v-22l-24 -23l-13 -254l23 -30zM387 627l12 30l-12 11v77l12 158l19 53l-8 11l22 22l-14 10l80 134v32l100 133l133 31l10 14l56 -14l45 -31h18l37 -143l18 -45l15 12v-67l8 -43l33 -68v-110v-129l14 -78l-22 -47v-119l-25 -55l-31 -33l8 -37 l-32 -41l-9 8l-32 -41l10 -14l-166 -78l-133 37l-98 121v63l-37 37v111z" />
<glyph unicode="&#x153;" horiz-adv-x="1679" d="M125 492l33 -78l-25 -23l37 -96l-12 -55l22 -148l23 -55l8 14h14l74 -78l111 -24v-8h36l19 -15h133h47l64 47l14 -10l18 19h15l39 73l41 -32v-23l45 -18l-13 -15v-8l68 -14l18 -19l15 11l121 8l22 37l141 -45l25 22h45l10 41h31l33 37l14 -14l33 22l55 111v47l-33 63 l-55 33v47l78 23l55 110l19 74l-19 37l-14 141l-55 80l-9 31l-77 88h-33l-47 45l-9 33l-124 22l-74 -22l-37 -23h-41l-78 -47l-47 -8v-23l-8 -10l-10 -2l-29 72h-18l-15 8h-41l-147 69l-74 11l-37 -25l-8 14l-102 11l-41 -43l-23 -37l-102 -64l-56 -133l15 -33l-33 -45 l10 -10l-47 -143zM322 547l47 88v78l8 -13l33 56l133 78l78 -23l55 -66l10 11l23 -43v-299l-9 -64v-47l-14 10l-55 -88l-41 -41l8 -14l-55 -8l-8 -15l-70 23h-8l-11 -8l-22 22h-47l-8 9l22 24l-55 78l10 74l-10 14zM954 322l56 55l37 -23h18l14 15l97 -23l47 8v-8l8 -14 l55 22l55 -8l-63 -55l-33 -15h-14l-8 -40l-56 -80l-32 -23l-15 -22l-30 -19l-43 19l18 36l-64 64l9 33zM1010 686l24 33l13 12v25l10 -15l22 23l-14 10l92 -18l43 -56l-10 -36l-78 -33z" />
<glyph unicode="&#x178;" horiz-adv-x="1286" d="M111 1348l32 -37l23 -64h18l15 -8l30 -102l66 -64l55 -102l70 -101v-32l8 14l70 -111v-125l32 -88l-24 -108v-144v-88l24 -55l9 -100l55 -88l88 -15l45 25v22l47 64l31 133h10l-10 125l24 18h9l10 156h12l-12 166l22 47l-22 33l55 110l45 23v31l33 32l14 66l41 55l56 123 h12l10 80l55 72l-10 14v10l19 78l-56 55l-8 -10l-22 19v14h-25l-8 -14l-23 24l-55 -10l-78 -143h-18v-23l8 -14l-23 -19l-10 11v-33l-12 -13l-10 13h-9v-31l-36 -47v-33l-19 -22l-55 -101h-25l-67 45l-41 103h-25l-45 30l-10 11l-23 78l-41 45v32l-36 11l-56 86h-33l-88 55 l-86 -41l-22 -45l8 -55zM317 1671l99 -70l71 -12l62 59l22 55l33 23l-10 10v68l-23 55l-69 33l-31 22l-111 -55l13 -14l-56 -31v-143zM692 1748l23 -77l61 -88l86 6l74 26l63 56l15 110l-56 78l-55 33l-78 8l-10 -8l-55 -14l-45 -41v-48z" />
<glyph unicode="&#x2c6;" horiz-adv-x="862" d="M86 1247l8 -26l25 -39l41 -17l28 -8l29 12l45 31l21 27l26 12v16l47 64v16l29 39l31 33l39 6l30 -27l23 -22l16 -25l4 -34l19 -27l-2 -23l16 -26l2 -25l29 -20l37 -2l41 -21l41 6l28 19l11 24l20 52l10 43l-28 55l-47 43v22l-48 21l-18 72l-8 16l8 25l-47 36l-68 27 l-92 -23l-67 -26l-27 -6v-8l-68 -25l13 -16l-47 -17v-18l-29 -17l-10 -34l-29 -29l-27 -47l-35 -53v-27z" />
<glyph unicode="&#x2dc;" horiz-adv-x="995" d="M47 1341l6 -69h37l12 -6l13 12l20 -43l55 14l3 -14l86 29l94 12l12 -29l55 -10l86 -33l76 -10l148 -16l73 18l58 121l2 -10l67 18l-8 6l16 90l-30 13l-6 10l8 20l-47 4l-13 -8l-14 29l4 10l-31 12l-127 -86l-98 11l-119 43l-8 28l-76 -10l-61 16l-59 -2l-60 -26l-53 14 l-45 -24l-23 -105l-10 -2l-22 8z" />
<glyph unicode="&#x2000;" horiz-adv-x="1023" />
<glyph unicode="&#x2001;" horiz-adv-x="2046" />
<glyph unicode="&#x2002;" horiz-adv-x="1023" />
<glyph unicode="&#x2003;" horiz-adv-x="2046" />
<glyph unicode="&#x2004;" horiz-adv-x="682" />
<glyph unicode="&#x2005;" horiz-adv-x="511" />
<glyph unicode="&#x2006;" horiz-adv-x="341" />
<glyph unicode="&#x2007;" horiz-adv-x="341" />
<glyph unicode="&#x2008;" horiz-adv-x="255" />
<glyph unicode="&#x2009;" horiz-adv-x="409" />
<glyph unicode="&#x200a;" horiz-adv-x="113" />
<glyph unicode="&#x2010;" horiz-adv-x="761" d="M131 649l55 -47l244 -8h55l86 8l33 37l47 66l-14 55l-10 55l-56 8v23h-45l-10 -8l-78 -15l-22 -18h-33l-23 18h-41l-77 -8h-56l-55 -78v-88z" />
<glyph unicode="&#x2011;" horiz-adv-x="761" d="M131 649l55 -47l244 -8h55l86 8l33 37l47 66l-14 55l-10 55l-56 8v23h-45l-10 -8l-78 -15l-22 -18h-33l-23 18h-41l-77 -8h-56l-55 -78v-88z" />
<glyph unicode="&#x2012;" horiz-adv-x="761" d="M131 649l55 -47l244 -8h55l86 8l33 37l47 66l-14 55l-10 55l-56 8v23h-45l-10 -8l-78 -15l-22 -18h-33l-23 18h-41l-77 -8h-56l-55 -78v-88z" />
<glyph unicode="&#x2013;" horiz-adv-x="1069" d="M131 649l55 -47l88 -12l136 12h82l49 -16l53 8l98 -33l27 33h55l86 8l33 37l47 66l-14 55l-11 55l-55 8v23h-45l-10 -8l-78 -15l-22 -18h-33l-23 18h-41l-96 13l-70 -13l-116 13l-84 -21h-56l-55 -78v-88z" />
<glyph unicode="&#x2014;" horiz-adv-x="1658" d="M131 649l55 -47l88 -12l136 12l106 10l25 -18l57 2l37 -18l162 -5l82 17l30 -17l52 13l61 -6l78 22l49 -16l53 8l98 -33l27 33h55l86 8l33 37l47 66l-14 55l-10 55l-56 8v23h-45l-10 -8l-78 -15l-22 -18h-33l-23 18h-40l-97 13l-155 4l-74 -19l-133 6l-31 -4l-20 15 l-56 -15l-90 -8l-119 8l-116 13l-84 -21h-56l-55 -78v-88z" />
<glyph unicode="&#x2018;" horiz-adv-x="491" d="M47 1212l37 -24l-14 -31l22 -27l14 -51l39 -26l37 -6l45 2l45 12l15 35l43 26v74l-25 21l12 36l-47 37l15 51l53 48l33 24l12 29l16 45l-45 33l-49 8l-29 -8l-69 -21l-43 -55l-53 -62l-35 -51l-17 -53z" />
<glyph unicode="&#x2019;" horiz-adv-x="491" d="M59 1065l45 -33l50 -8l28 8l70 21l43 55l53 61l35 52l16 53l13 65l-37 25l14 31l-22 26l-15 52l-39 26l-37 6l-45 -2l-45 -12l-14 -35l-43 -26v-74l25 -21l-13 -37l47 -36l-14 -52l-53 -47l-33 -24l-12 -29z" />
<glyph unicode="&#x201a;" horiz-adv-x="491" d="M59 -176l45 -33l50 -8l28 8l70 21l43 55l53 61l35 52l16 53l13 65l-37 25l14 31l-22 26l-15 51l-39 27l-37 6l-45 -2l-45 -12l-14 -35l-43 -27v-73l25 -21l-13 -37l47 -37l-14 -51l-53 -47l-33 -24l-12 -29z" />
<glyph unicode="&#x201c;" horiz-adv-x="854" d="M47 1212l37 -24l-14 -31l22 -27l14 -51l39 -26l37 -6l45 2l45 12l15 35l43 26v74l-25 21l12 36l-47 37l15 51l53 48l33 24l12 29l16 45l-45 33l-49 8l-29 -8l-69 -21l-43 -55l-53 -62l-35 -51l-17 -53zM440 1212l37 -24l-14 -31l22 -27l15 -51l39 -26l36 -6l46 2l45 12 l14 35l43 26v74l-25 21l13 36l-47 37l14 51l53 48l33 24l12 29l17 45l-45 33l-50 8l-28 -8l-70 -21l-43 -55l-53 -62l-35 -51l-16 -53z" />
<glyph unicode="&#x201d;" horiz-adv-x="872" d="M59 1065l45 -33l50 -8l28 8l70 21l43 55l53 61l35 52l16 53l13 65l-37 25l14 31l-22 26l-15 52l-39 26l-37 6l-45 -2l-45 -12l-14 -35l-43 -26v-74l25 -21l-13 -37l47 -36l-14 -52l-53 -47l-33 -24l-12 -29zM446 1065l46 -33l49 -8l28 8l70 21l43 55l53 61l35 52l16 53 l13 65l-37 25l14 31l-22 26l-15 52l-39 26l-36 6l-46 -2l-45 -12l-14 -35l-43 -26v-74l25 -21l-13 -37l47 -36l-14 -52l-53 -47l-33 -24l-12 -29z" />
<glyph unicode="&#x201e;" horiz-adv-x="878" d="M59 -176l45 -33l50 -8l28 8l70 21l43 55l53 61l35 52l16 53l13 65l-37 25l14 31l-22 26l-15 51l-39 27l-37 6l-45 -2l-45 -12l-14 -35l-43 -27v-73l25 -21l-13 -37l47 -37l-14 -51l-53 -47l-33 -24l-12 -29zM428 -176l45 -33l49 -8l29 8l70 21l43 55l53 61l35 52l16 53 l12 65l-37 25l15 31l-23 26l-14 51l-39 27l-37 6l-45 -2l-45 -12l-14 -35l-43 -27v-73l24 -21l-12 -37l47 -37l-14 -51l-54 -47l-32 -24l-13 -29z" />
<glyph unicode="&#x2022;" horiz-adv-x="1024" d="M119 748l39 -52h28l140 -26v-15l-107 -96l-14 -82l31 -28l65 -13l80 74l57 2l2 -111l41 -55l58 -14l65 45l10 110l29 29l98 -84l70 2l39 15l12 81l-98 107v29l14 14l94 2l66 45v39l-25 27l-139 -2l-72 26v43l15 25l55 14l80 74v39l-16 28l-80 -2l-94 -98h-29l-19 190 l-39 41l-71 -2l-41 -43l-8 -96l-27 -29l-14 15h-29l-68 41l-57 -2l-24 -29l2 -57l38 -37l43 -29l3 -43l-15 -8l-110 -4l-70 -57z" />
<glyph unicode="&#x2026;" horiz-adv-x="1769" d="M174 37l37 -53h57h49l56 24l10 37l18 133l-41 41l-110 8l-76 -37v-153zM764 37l37 -53h57h49l56 24l10 37l18 133l-41 41l-110 8l-76 -37v-153zM1354 37l37 -53h57h49l55 24l11 37l18 133l-41 41l-110 8l-76 -37v-153z" />
<glyph unicode="&#x202f;" horiz-adv-x="409" />
<glyph unicode="&#x2039;" horiz-adv-x="612" d="M45 813l25 -108l30 -80l6 -31h11l26 -80l19 14l18 -55h21l16 -33l6 11l33 -23v-10l4 10l14 -33h15l47 -45l4 12l51 -55v-12l15 12l10 -22l33 -23l10 -41h8l4 8l10 -22l4 14h19l41 96v78l-2 8v37l-29 66l-14 8v14h-15l-14 33h-18l-70 55v9h-14l-4 -9l-29 33v13l-4 -13h-10 l-15 31l-14 47l14 33h25l8 22l10 31l8 -22l33 14l6 8h37l19 25l28 -11l23 41l6 -8h4l18 33v22l13 9v47l20 55l-8 33l4 8l-39 102l-59 -10l-66 -45l-61 -33l-47 -55h-25l-22 -55l-52 8l-28 -31l-19 -10l-10 18l-4 -8l-37 -47l-16 -8z" />
<glyph unicode="&#x203a;" horiz-adv-x="612" d="M49 1026l21 -55v-47l12 -9v-22l18 -33h6l5 8l22 -41l31 11l16 -25h37l6 -8l33 -14l8 22l10 -31l11 -22h22l15 -33l-15 -47l-12 -31h-10l-4 13v-13l-29 -33l-4 9h-15v-9l-69 -55h-21l-14 -33h-12v-14l-17 -8l-26 -66v-37l-4 -8v-78l41 -96h18l4 -14l10 22l4 -8h11l10 41 l33 23l8 22l14 -12v12l51 55l7 -12l47 45h14l12 33l4 -10v10l33 23l6 -11l19 33h20l17 55l20 -14l27 80h10l6 31l31 80l22 108l-30 80l-17 8l-37 47l-4 8l-8 -18l-20 10l-27 31l-51 -8l-25 55h-22l-47 55l-64 33l-63 45l-60 10l-41 -102l6 -8z" />
<glyph unicode="&#x205f;" horiz-adv-x="511" />
<glyph unicode="&#x2122;" horiz-adv-x="1574" d="M-47 1378l39 -45l71 -8l43 18l111 -18l16 -47l-16 -39l16 -18l-26 -68v-92l16 -14l-6 -7v-12l-10 -27l16 -22l-16 -10l10 -8l6 -33l-16 -21l-6 -39l16 -12v-14l-16 -27v-119l-17 -24l17 -17l-6 -6v-12l-11 -55l56 -52h32l13 -14v-6h16l61 53l31 66l6 33l-10 10v10l4 59 l-14 15v26l20 54h-6l-4 6v20l-10 19l20 14l-6 6l-4 107l-18 14l22 39l-22 18v29l18 70l4 34l-14 27l14 29v32l39 37l6 17h19l8 -11l12 15l27 14v33l12 14l10 -8h6l17 12l22 -18l17 33l-72 6l-12 -21l-47 -4l-47 39l-31 -14l-8 -21l-9 -45h-38l-7 21h-24h-47v6l16 29l-22 4 l-39 -47l-23 14v18l6 11h-14l-78 -35l-29 20l15 15v32h-15l-38 -32h-23l-33 -23zM618 700l17 -112l39 -33l59 -16l19 16l30 12v27l29 41l-16 12v15l10 6v71l-14 66l20 55l-16 10v29l16 86v66h-16l-4 8l-25 24l6 21l55 41l7 -8l26 -7v-18l23 -8l-11 -6v-15l17 -36l39 -29 l-6 -21l28 -26l11 -39l20 -19l111 -14l38 27l13 24l49 86l55 80l45 29l23 -19l-8 -79l-15 -62v-39v-41h-6l6 -92l6 -61l9 -4v-33l-15 -29l15 -18l-9 -29l31 -51l39 -27l8 6h31l55 21l17 65l-11 9l11 6h6l-17 12v25l17 55h6v20l-6 33l-6 133l-11 66l-22 39l16 65l-22 43 l-10 4l49 80l-17 68l-22 18v21l22 18l-10 8l-6 90h-23l-39 17v6l-16 -23l-31 23l-8 -6l-37 -17l-39 -65l-32 -10l-39 -66l-68 -108l-47 -80l-14 -7l-11 7l-36 47l-7 -6h-10l-28 39v32l-72 94l-6 7v32l-23 60l-39 24l6 11h-22l-33 18h-20l-19 -12l-20 12l-39 -29l-17 -36 l-6 -95l-10 -53h-6l16 -12v-13l-10 -8l-6 -145l22 -25l-16 -49v-92l10 -6l-22 -19v-47l22 -32l6 -7v-26l-22 -21v-28z" />
<glyph unicode="&#x25fc;" horiz-adv-x="1126" d="M0 0v1126h1126v-1126h-1126z" />
</font>
</defs>
</svg>
