<?xml version="1.0" standalone="no"?>
<!DOCTYPE svg PUBLIC "-//W3C//DTD SVG 1.1//EN" "http://www.w3.org/Graphics/SVG/1.1/DTD/svg11.dtd" >
<svg xmlns="http://www.w3.org/2000/svg">
<metadata></metadata>
<defs>
<font id="aleolightitalic" horiz-adv-x="1545" >
<font-face units-per-em="2048" ascent="1649" descent="-399" />
<missing-glyph horiz-adv-x="446" />
<glyph unicode="&#xfb01;" horiz-adv-x="1294" d="M1233 1340q5 -13 3 -35q-3 -17 -12 -34q-8 -15 -23 -28q-14 -12 -31 -20q-17 -7 -36 -7q-20 0 -34 7q-15 8 -26 20q-12 14 -16 28q-6 16 -3 34q3 19 12 35q7 12 16 23q-95 57 -228 36q-99 -18 -168 -75q-98 -81 -119 -253l-10 -84h597l-112 -906q11 0 34 -0.5t33 -1.5 q20 -1 45 -1q6 0 12.5 -0.5t7.5 -0.5q41 -1 36 -36l-5 -41h-173h-97l10 81l102 833h-497l-112 -912q-12 -98 -47 -172q-35 -73 -90 -119q-56 -47 -129 -69t-165 -22v49q0 33 37 33q55 2 101 17q50 17 90 52q39 34 68 93q27 54 38 141l111 907l-142 10q-30 1 -27 25l5 40h173 l11 87q12 97 49 170q38 76 96 128q60 54 138 82t177 28q187 0 282 -111l2 -2l2 -2v-1q10 -13 14 -26z" />
<glyph unicode="&#xfb02;" horiz-adv-x="1403" d="M1318 65q13 0 13 -12l-1 -49q-22 -11 -48 -16q-27 -5 -54 -5q-63 0 -105 19q-20 9 -37 20q-18 14 -32 32q-25 30 -36 78q-10 48 -4 96l143 1161q-13 0 -115 8q-55 4 -109 4q-74 0 -140 -25t-111 -69q-47 -45 -77 -110q-28 -60 -39 -144l-9 -67h294l-9 -75h-292l-111 -909 q-12 -98 -47 -172q-35 -73 -90 -119q-56 -47 -129 -69t-165 -22v49q0 33 37 33q55 2 101 17q50 17 90 52q39 34 68 93q27 54 38 141l111 906l-142 9q-30 2 -27 26l5 40h173l8 67q10 86 48 168q36 77 94 134q58 56 138 88q80 31 178 31q22 0 72 -2q38 -2 72 -6q53 -4 65 -5 q40 -2 52 -2h74l-151 -1230q-10 -82 24 -127t117 -45q28 0 41 4q15 4 24 4z" />
<glyph horiz-adv-x="0" />
<glyph unicode="&#xd;" horiz-adv-x="385" />
<glyph horiz-adv-x="385" />
<glyph horiz-adv-x="385" />
<glyph unicode=" "  horiz-adv-x="446" />
<glyph unicode="&#x09;" horiz-adv-x="446" />
<glyph unicode="&#xa0;" horiz-adv-x="446" />
<glyph unicode="!" horiz-adv-x="442" d="M368 1449l-72 -586q-6 -47 -12 -87q-2 -12 -6.5 -40t-6.5 -43q-2 -11 -7 -42t-8 -48q-3 -18 -10 -55t-9 -49h-67q2 20 7 104q4 62 6 90q2 31 8 83q8 68 10 87l71 586h96zM54 79q3 19 12 37q8 17 23 30q13 12 33 20q19 8 38 8q18 0 36 -8q19 -9 28 -20q10 -14 16 -30 q7 -20 4 -37q-3 -23 -13 -38q-11 -17 -24 -29t-33 -20q-17 -7 -37 -7q-40 0 -64 27q-24 26 -19 67z" />
<glyph unicode="&#x22;" horiz-adv-x="661" d="M267 1449l-37 -299l-28 -157q-5 -19 -13 -27q-10 -10 -26 -10q-13 0 -21 10q-7 8 -7 27l10 157l37 299h85zM564 1449l-37 -299l-28 -157q-5 -19 -13 -27q-10 -10 -26 -10q-13 0 -21 10q-7 8 -7 27l10 157l37 299h85z" />
<glyph unicode="#" horiz-adv-x="1181" d="M733 454l-152 -454h-42q-15 0 -22 9q-8 10 -7 25q1 5 3 11l138 409h-305l-139 -413q-8 -23 -21 -32q-14 -9 -31 -9h-43l152 454h-187q-15 0 -22 6q-7 5 -5 24l1 10q0 1 4 15l5 16h223l133 399h-259l11 39q7 33 49 33h218l140 414q6 20 20 29q13 10 32 10h43l-153 -453 h305l153 453h43q33 0 28 -31l-3 -12l-139 -410h230l-10 -39q-9 -33 -51 -33h-188l-133 -399h230q31 0 28 -26l-10 -45h-267zM365 525h305l133 399h-305z" />
<glyph unicode="$" horiz-adv-x="1075" d="M403 -15q-129 6 -222 56q-91 49 -154 132l32 40q13 15 31 15q10 0 21 -11q6 -6 30 -28q28 -25 42 -37q26 -21 57 -38q30 -16 77 -31q42 -13 100 -16l113 651q-66 20 -130 48q-64 27 -109 68q-48 44 -71 102q-25 64 -13 154q9 71 43 136q35 68 93 118q60 52 138 83 q81 32 177 35l30 172q3 15 12 24t23 9h37l-37 -206q106 -8 176 -45q73 -39 130 -103l-27 -35q-11 -17 -29 -17q-13 0 -30 16q-20 19 -48 38q-24 17 -75 39q-45 20 -111 24l-101 -585q20 -6 92 -32q52 -18 89 -37q47 -23 77 -47q33 -26 58 -63q23 -35 34 -83q10 -44 2 -108 q-10 -87 -50 -166q-39 -79 -102 -137q-62 -57 -149 -94t-191 -41l-37 -216q-3 -14 -12 -23t-22 -9h-37zM866 408q9 67 -11 114t-59 80q-37 32 -92 55q-38 16 -112 41l-109 -631q83 5 150 33q65 27 116 74q49 44 79 105q29 57 38 129zM299 1098q-8 -64 9 -109q15 -42 52 -77 q33 -32 83 -55q58 -27 103 -43l98 565q-79 -5 -139 -28q-61 -24 -105 -63t-69 -88q-26 -51 -32 -102z" />
<glyph unicode="%" horiz-adv-x="1495" d="M714 1101q-10 -88 -44 -157q-34 -70 -81 -114q-50 -47 -105 -68q-60 -23 -120 -23q-62 0 -116 23q-53 23 -89 68q-34 43 -50 114q-15 69 -5 157q10 87 43 159q31 67 79 114q47 46 105 68q60 23 122 23t116 -23q53 -23 89 -68t51 -114q15 -70 5 -159zM636 1101 q9 80 -1 135q-10 56 -38 93t-66 53q-40 17 -86 17q-44 0 -89 -17q-43 -16 -78 -53q-34 -36 -60 -93q-26 -59 -35 -135q-9 -78 2 -135t37 -92q27 -36 65 -52q40 -17 85 -17t90 17q44 17 79 52q33 33 60 92q26 57 35 135zM1304 1431q9 9 17 13q10 5 23 5h69l-1216 -1431 q-15 -18 -38 -18h-70zM1403 344q-10 -88 -44 -157q-33 -68 -80 -113q-47 -46 -105 -68q-60 -23 -119 -23q-63 0 -117 23q-51 22 -88 68q-36 45 -51 113q-15 66 -4 157q10 87 43 159q32 69 78 114q48 47 106 69q60 23 122 23t116 -23q50 -21 88 -69q36 -45 51 -114 q15 -68 4 -159zM1325 344q9 81 -1 136t-37 93q-28 37 -66 53q-40 17 -85 17t-90 -17q-44 -17 -79 -53t-60 -93q-25 -56 -34 -136q-9 -81 1 -135q11 -56 37 -91t66 -52t86 -17q44 0 89 17q46 17 79 52q35 36 60 91q25 54 34 135z" />
<glyph unicode="&#x26;" horiz-adv-x="1355" d="M760 1465q71 0 127 -23q61 -25 100 -64q40 -40 61 -92t16 -110q-6 -1 -16 -4t-11 -3q-27 -5 -37 -5q-9 0 -15 6q-7 7 -8 18q-5 31 -17 61q-15 37 -39 66q-27 31 -68 52q-44 22 -102 22q-63 0 -114 -19q-53 -20 -93 -54q-39 -33 -65 -81q-26 -47 -33 -103q-10 -83 23 -161 q33 -75 113 -165l401 -451q54 72 93 154q34 73 54 155q3 13 11 21q7 7 19 7h56q-14 -96 -60 -198q-46 -101 -122 -195l268 -299h-91q-19 0 -30 4q-10 4 -24 19l-185 205q-54 -54 -114 -98t-129 -77t-144 -51t-156 -18q-78 0 -149 25t-124 75t-80 122q-28 74 -16 165 q9 71 44 140q34 67 87 123q54 57 122 100q74 47 146 72q-62 81 -89 159q-26 77 -16 165q9 71 42 133q33 61 87 106q55 46 124 71t153 25zM160 377q-9 -80 13 -137q23 -59 66 -98q45 -40 100 -59q58 -20 114 -20q70 0 138 17q64 16 125 45q57 27 111 70q53 42 96 88l-413 461 q-2 2 -10 12q-72 -29 -131 -69q-60 -40 -103 -88q-45 -49 -71 -105q-28 -58 -35 -117z" />
<glyph unicode="'" horiz-adv-x="364" d="M267 1449l-37 -299l-28 -157q-5 -19 -13 -27q-10 -10 -26 -10q-13 0 -21 10q-7 8 -7 27l10 157l37 299h85z" />
<glyph unicode="(" horiz-adv-x="577" d="M182 645q-28 -228 8 -440t135 -406q5 -11 4 -21q-2 -15 -17 -23l-46 -26q-61 116 -104 234q-39 107 -59 225q-18 106 -20 225q-1 108 14 232q16 125 43 233q28 112 75 225q46 110 115 226q66 109 161 234l40 -27q11 -7 10 -22q-2 -11 -9 -21q-145 -196 -234 -407 q-87 -207 -116 -441z" />
<glyph unicode=")" horiz-adv-x="589" d="M397 645q28 229 -8 441q-36 209 -134 407q-6 12 -5 21q1 14 16 22l47 27q61 -118 103 -234q38 -106 59 -226q18 -106 20 -225q2 -117 -13 -233q-14 -115 -44 -232q-28 -113 -75 -225q-44 -107 -115 -225q-66 -109 -161 -234l-39 26q-14 8 -12 23q1 9 10 21 q145 192 235 406q87 206 116 440z" />
<glyph unicode="*" horiz-adv-x="761" d="M325 919l27 218q1 16 6 30q4 12 15 31q-15 -17 -25 -23q-27 -17 -29 -18l-206 -112l-20 46l207 112q14 7 29 12q17 6 32 8q-16 3 -31 8q-5 2 -25 13l-181 113l32 46l180 -113q10 -7 23 -20q9 -9 21 -27q-5 17 -7 34q-1 15 0 33l27 219h53l-27 -218q-5 -31 -6 -34 q-4 -15 -15 -33q17 20 26 27q18 13 29 19l206 112l21 -46l-206 -112q-17 -9 -31 -14q-18 -6 -31 -7q16 -3 30 -8q12 -5 27 -12l179 -112l-31 -47l-181 113q-7 5 -23 18q-11 9 -20 25q3 -10 5 -32q1 -13 0 -30l-27 -219h-53z" />
<glyph unicode="+" horiz-adv-x="1128" d="M668 1186l-57 -462h442l-10 -75h-441l-57 -464h-80l57 464h-440l9 75h440l57 462h80z" />
<glyph unicode="," horiz-adv-x="463" d="M144 87q4 35 32 61t68 26q43 0 64 -30t15 -79q-4 -39 -22 -86t-41 -85q-24 -40 -59 -81q-30 -36 -73 -72l-13 15q-8 8 -6 18q0 4 4 10q2 3 8 9q12 11 30 30q19 20 38 47t36 60q16 32 25 70q-4 -1 -14 -3q-5 -1 -17 -1q-38 0 -59 26q-20 25 -16 65z" />
<glyph unicode="-" horiz-adv-x="743" d="M141 649h476l-10 -83h-476z" />
<glyph unicode="." horiz-adv-x="450" d="M118 79q3 22 11 37t24 30q14 12 32 20q19 8 38 8q18 0 36 -8q19 -9 28 -20q12 -16 17 -30q6 -18 3 -37q-4 -25 -12 -38q-11 -17 -24 -29t-33 -20q-17 -7 -38 -7q-40 0 -64 27q-23 25 -18 67z" />
<glyph unicode="/" horiz-adv-x="1010" d="M143 -46q-11 -21 -28 -30q-20 -10 -35 -10h-40l826 1538q20 38 60 38h42z" />
<glyph unicode="0" horiz-adv-x="1242" d="M1139 725q-25 -196 -81 -330q-59 -140 -140 -230q-82 -91 -182 -136q-98 -44 -208 -44q-109 0 -196 44q-88 45 -148 136q-59 90 -83 230q-24 139 0 330t81 330t139 230q81 90 182 136q97 44 207 44q109 0 197 -44t148 -136t84 -230q24 -139 0 -330zM1037 725 q21 176 3 301q-18 121 -66 204q-47 80 -118 117q-69 36 -156 36q-86 0 -164 -36q-80 -37 -148 -117q-66 -77 -116 -204q-50 -126 -71 -301q-22 -172 -3 -302q18 -123 66 -203q49 -81 119 -116q72 -36 155 -36q84 0 165 36q80 36 147 116q68 82 116 203t71 302z" />
<glyph unicode="1" horiz-adv-x="848" d="M792 0h-747l4 34q3 27 37 29q2 0 12 0.5t30.5 1.5t41.5 2q27 1 76 3.5t70 3.5l71 3l144 1174q3 20 13 74l-355 -284q-12 -9 -25 -9q-18 0 -26 12l-24 41l464 370h76l-169 -1378q74 -4 143.5 -7.5t101 -5t36.5 -1.5q33 -1 30 -29z" />
<glyph unicode="2" horiz-adv-x="1154" d="M964 275h39h11l-27 -218l-2 -14l-5 -43h-935l4 35q1 11 9 23q9 14 16 20l556 501q69 61 129 120q61 60 105 118q46 62 75 122t38 133q11 80 -9 139q-20 61 -59 97q-41 38 -96 56t-119 18q-69 0 -129 -21q-62 -22 -110 -58q-46 -34 -84 -89q-36 -52 -55 -113 q-15 -36 -45 -36h-5q-1 0 -3 1h-2l-48 8q25 97 71 166q51 76 112 123q67 51 144 76q81 26 169 26q84 0 156 -24t123 -72q50 -47 76 -122q25 -72 13 -172q-10 -80 -44 -152q-33 -71 -84 -135q-49 -62 -115 -125q-32 -30 -135 -124l-510 -463q33 8 69 12q32 4 72 4h556 q4 24 14 74q2 12 6 27t4 16q1 4 2 7.5t1.5 6t0.5 3.5q9 49 50 49z" />
<glyph unicode="3" horiz-adv-x="1123" d="M676 1465q82 0 154 -23t121 -69q51 -47 74 -115q24 -68 13 -158q-9 -70 -38 -128q-27 -54 -73 -100q-43 -44 -99 -72q-57 -29 -119 -44q155 -30 226 -124q70 -92 53 -234q-10 -87 -56 -165q-45 -77 -114 -132q-66 -53 -158 -86q-87 -31 -188 -31q-125 0 -203 33t-125 86 t-68 120q-22 70 -32 131l41 17q15 5 24 5q11 0 21 -5t13 -20l5 -20q1 -3 4.5 -19t6.5 -27q7 -26 23 -56q19 -36 37 -59q24 -30 59 -52t85 -37q46 -14 118 -14q91 0 165 30q70 28 125 79q54 49 83 106t37 114q8 67 -6 124q-13 56 -58 99q-44 42 -121 66q-78 24 -196 24l9 70 q90 1 169 25q76 23 128 63q52 41 84 96q33 58 40 121q9 75 -10 134q-17 55 -57 93q-37 35 -94 54q-52 17 -117 17q-72 0 -129 -20q-63 -22 -108 -57q-49 -39 -85 -89q-34 -49 -58 -115q-12 -36 -42 -36q-8 0 -11 1l-49 8q27 97 71 166q48 75 111 123q66 51 145 76 q81 26 169 26z" />
<glyph unicode="4" horiz-adv-x="1186" d="M868 494h265l-6 -54q-1 -12 -9 -18t-22 -6h-238l-51 -416h-88l51 416h-683q-15 0 -22 6t-9 18l-4 48l846 963h88zM873 1252q1 7 3.5 20.5t2.5 16.5q3 18 9 40l-729 -835h621z" />
<glyph unicode="5" horiz-adv-x="1101" d="M1039 1407q-3 -20 -18 -34q-16 -14 -46 -14h-524l-146 -483q67 17 133 25q59 7 118 7q115 0 195 -32q84 -33 133 -90q52 -59 71 -138q20 -81 8 -174q-14 -114 -65 -205q-52 -93 -127 -154q-79 -65 -171 -98t-198 -33q-63 0 -113 10t-99 29q-44 17 -83 42t-65 48l34 40 q12 15 31 15q15 0 37 -15q28 -19 60 -34q44 -21 89 -34q53 -15 124 -15q83 0 160 27q76 27 136 78q59 50 99 127q39 75 51 170q9 80 -5 143q-15 66 -56 113q-40 46 -109 72t-164 26q-59 0 -125 -9q-67 -9 -143 -30l-61 20l192 642h652z" />
<glyph unicode="6" horiz-adv-x="1079" d="M623 866q94 0 169 -30q74 -29 125 -87q49 -55 72 -135q23 -81 11 -178q-12 -96 -58 -181q-45 -83 -116 -143q-72 -61 -162 -95q-88 -33 -198 -33q-104 0 -181 32q-80 33 -133 95q-51 60 -74 150q-22 86 -8 200q10 85 66 192q53 102 171 240l461 532q21 24 55 24h86 l-501 -564q-45 -50 -69 -79q-34 -40 -57 -73q64 60 156 98q85 35 185 35zM162 437q-10 -78 7 -149q17 -70 57 -119q41 -51 103 -77q63 -27 146 -27q89 0 162 27t130 76q55 48 90 116q37 72 45 146q10 81 -8 150q-18 68 -60 114q-41 46 -104 71q-64 26 -143 26 q-89 0 -165 -32q-74 -31 -130 -81t-89 -113q-34 -64 -41 -128z" />
<glyph unicode="7" horiz-adv-x="1140" d="M229 1449h858l-5 -44q-1 -12 -7 -30q-3 -9 -12 -22l-826 -1316q-11 -17 -25 -27t-38 -10h-66l829 1311q16 26 38 48h-761q-6 -34 -11.5 -65t-8.5 -49.5t-4 -21.5q-9 -49 -50 -49h-50l26 212l8 63h105z" />
<glyph unicode="8" horiz-adv-x="1128" d="M484 -16q-106 0 -188 27t-138 80q-57 54 -82 126q-26 75 -14 166q11 80 40 142q29 60 79 109q50 48 109 77q65 32 133 46q-59 17 -106 50q-45 31 -74 76q-27 42 -38 97q-11 54 -3 116q9 78 46 144q38 69 98 118q61 51 142 79q80 28 178 28t170 -28q73 -28 122 -79 t70 -118q20 -65 11 -144q-8 -64 -31 -116q-23 -51 -64 -97q-40 -45 -92 -76q-54 -32 -119 -50q65 -15 122 -46q55 -31 91 -77q35 -46 52 -109q16 -63 6 -142q-12 -94 -55 -166q-43 -73 -113 -126q-71 -54 -158 -80q-90 -27 -194 -27zM493 61q82 0 154 23q70 22 126 66 q53 41 88 102q34 59 43 132q12 94 -16 159q-28 64 -76 101q-49 37 -114 54q-61 16 -125 16q-63 0 -128 -16q-69 -17 -127 -54q-59 -38 -101 -101q-43 -65 -55 -159q-9 -71 11 -132t62 -102q46 -44 110 -66q67 -23 148 -23zM583 793q84 0 147 25q65 26 109 67q45 42 71 97 q25 54 33 113q8 64 -7 116q-14 52 -52 94q-34 38 -94 62q-58 23 -134 23t-140 -23t-109 -62q-47 -41 -75 -94q-27 -52 -35 -116q-7 -57 5 -113q12 -55 47 -97q34 -42 92 -67q57 -25 142 -25z" />
<glyph unicode="9" horiz-adv-x="1058" d="M451 616q-85 0 -161 30q-71 28 -120 83q-48 54 -69 131q-22 79 -10 170q12 92 56 173q43 78 112 137q70 60 157 92q88 33 189 33q99 0 173 -32q76 -33 127 -93q49 -58 72 -143q22 -83 10 -186q-8 -59 -25 -108q-18 -51 -48 -102q-34 -58 -68 -105q-31 -43 -89 -115 l-448 -557q-18 -24 -54 -24h-88l502 598q66 79 67 81q23 29 56 75q-68 -66 -156 -102t-185 -36zM895 1029q9 82 -8 145q-18 66 -58 112q-41 47 -100 72q-61 26 -135 26q-81 0 -150 -25q-68 -25 -123 -72q-54 -47 -88 -110q-35 -66 -44 -141q-10 -77 7 -144q16 -62 56 -108 q38 -43 99 -68q60 -24 137 -24q87 0 159 30q71 30 124 78q54 50 85 108q32 60 39 121z" />
<glyph unicode=":" horiz-adv-x="482" d="M93 79q3 19 12 37q8 17 23 30q13 12 33 20q19 8 38 8q18 0 36 -8q19 -9 28 -20q11 -14 16 -30q6 -18 3 -37q-4 -25 -12 -38q-11 -17 -24 -29t-33 -20q-17 -7 -37 -7q-40 0 -64 27q-24 26 -19 67zM193 895q3 19 12 37q8 15 24 30q16 14 32 21q17 7 38 7t36 -7 q18 -8 28 -21q10 -14 16 -30q7 -20 4 -37q-3 -21 -13 -37q-13 -20 -24 -30q-14 -12 -32 -20q-17 -7 -38 -7q-40 0 -64 27q-24 26 -19 67z" />
<glyph unicode=";" horiz-adv-x="497" d="M212 895q3 22 11 37t24 30q16 14 32 21q17 7 38 7t36 -7q18 -8 28 -21q12 -16 17 -30q6 -18 3 -37q-3 -23 -12 -37q-13 -20 -24 -30q-13 -12 -33 -20q-17 -7 -38 -7q-40 0 -64 27q-23 25 -18 67zM117 87q4 34 33 61q28 26 67 26q44 0 65 -30q20 -29 14 -79 q-5 -43 -21 -86q-16 -42 -42 -85q-24 -40 -59 -81q-33 -39 -72 -72l-14 15q-8 8 -6 18q0 4 4 10q1 1 2 2.5t2 2t2.5 2l2.5 2.5q12 11 30 30q14 15 37 47q20 27 36 60q18 35 26 70q-2 0 -4.5 -0.5t-5.5 -1.5t-5 -1q-5 -1 -17 -1q-38 0 -59 26q-20 25 -16 65z" />
<glyph unicode="&#x3c;" horiz-adv-x="987" d="M91 709l817 394l-9 -67q-2 -13 -8 -19q-11 -11 -24 -17l-601 -286q-36 -18 -77 -27q43 -9 70 -25l531 -288q14 -7 20 -17q5 -9 4 -19l-9 -67l-719 396z" />
<glyph unicode="=" horiz-adv-x="1131" d="M132 569h847l-9 -75h-847zM172 890h846l-9 -76h-847z" />
<glyph unicode="&#x3e;" horiz-adv-x="967" d="M69 271l8 67q2 12 8 20t23 16l602 288q33 16 76 25q-8 2 -36 12l-33 15l-532 286q-25 15 -22 36l8 67l719 -394l-5 -42z" />
<glyph unicode="?" horiz-adv-x="802" d="M72 1323q34 29 69 53q40 27 82 46q46 21 94 32q47 11 108 11q71 0 133 -21q60 -20 103 -62q45 -43 64 -97q21 -58 12 -130q-9 -78 -40 -134q-32 -58 -73 -99q-38 -38 -90 -75q-17 -12 -46 -32t-41 -28q-42 -30 -71 -57q-30 -28 -36 -63l-33 -168h-66l16 175l1 5 q5 43 33 74q27 30 69 61q47 35 86 60q46 30 88 70q42 41 71 88q30 49 39 119q8 55 -9 99q-17 45 -49 74t-80 46q-42 15 -98 15q-69 0 -119 -17q-55 -19 -89 -40q-42 -26 -58 -40q-21 -18 -29 -18q-15 0 -21 12zM126 79q3 22 11 37t24 30q14 12 32 20q19 8 39 8q18 0 36 -8 t27 -20q12 -16 17 -30q6 -18 3 -37q-4 -25 -12 -38q-11 -17 -24 -29t-33 -20q-17 -7 -38 -7q-39 0 -63 27q-24 26 -19 67z" />
<glyph unicode="@" horiz-adv-x="1650" d="M1122 193q-92 0 -130 47q-40 49 -31 137q-71 -98 -146 -138q-78 -42 -161 -42q-57 0 -97 20q-39 19 -63 54t-32 82q-7 45 -1 102q10 84 55 174q44 87 116 158q71 70 172 114q100 44 217 44q55 0 101 -9t82 -27l-137 -355q-16 -42 -28 -84q-11 -40 -14 -68q-6 -43 2 -73 q7 -26 25 -44q16 -16 41 -22q24 -6 50 -6q57 0 116 31q57 30 105 87q47 56 82 138q34 80 46 181q18 155 -17 265q-36 114 -112 188q-74 73 -186 111q-108 37 -237 37q-140 0 -272 -54q-134 -55 -239 -151q-108 -99 -179 -232q-73 -136 -92 -296q-22 -181 18 -319 q40 -137 129 -230q88 -92 215 -140q128 -48 276 -48q151 0 282 35q127 34 240 101q8 5 18 5q15 0 19 -14l10 -38q-125 -77 -266 -117q-144 -41 -311 -41q-170 0 -309 54q-141 55 -236 157q-97 105 -140 253q-44 151 -20 342q21 171 99 318q76 143 196 254q113 104 265 168 q146 61 305 61q135 0 258 -43q118 -41 207 -127q87 -84 129 -209q42 -126 23 -290q-13 -110 -55 -204q-40 -91 -101 -158q-59 -65 -134 -103q-71 -36 -153 -36zM680 264q38 0 78 12t81 45q42 34 79 87q41 58 71 140l120 317q-27 8 -49 11q-34 4 -60 4q-91 0 -172 -38 q-80 -38 -140 -98t-99 -135t-48 -152q-5 -43 1 -77q6 -37 23 -61q18 -25 46 -40q29 -15 69 -15z" />
<glyph unicode="A" d="M1432 88q40 -5 35 -41l-6 -47h-67h-42h-39h-13h-192l5 47q5 39 52 42q1 0 5.5 0.5t7.5 0.5q1 0 29 2q20 1 53 3l-101 354l-7 26h-690l-14 -26l-187 -354q34 -2 52 -3q26 -2 29 -2t7 -0.5t5 -0.5q46 -3 42 -42l-6 -47h-192h-14h-39h-41h-67l6 47q5 37 44 41l67 7l721 1354 h104l388 -1354zM875 1257l-372 -704h628l-199 706q-6 24 -9 39t-9 47q-3 -6 -9.5 -22.5t-10.5 -24.5q-6 -15 -19 -41z" />
<glyph unicode="B" horiz-adv-x="1309" d="M1151 629q81 -89 63 -233q-12 -95 -53 -166q-43 -76 -110 -125q-69 -51 -163 -78t-211 -27h-470h-172l5 41q4 35 45 36q1 0 7 0.5t12 0.5q26 0 46 1q10 1 33 1.5t34 0.5l158 1287q-11 0 -33.5 0.5t-32.5 1.5q-20 1 -46 1q-6 0 -12 0.5t-7 0.5q-40 2 -36 36l5 41h172h417 q120 0 211 -25q88 -24 142 -72q53 -47 74 -116q21 -68 10 -156q-8 -59 -34 -110q-30 -59 -69 -99q-42 -44 -103 -78q-59 -33 -131 -51q169 -26 249 -113zM479 1366l-73 -595h315q98 0 174 26q74 25 125 67t79 95q27 52 35 110q18 148 -65 222q-84 75 -277 75h-313zM984 166 q108 83 126 232q9 68 -11 124q-19 54 -64 93q-44 38 -113 59q-66 20 -160 20h-365l-75 -610h364q191 0 298 82z" />
<glyph unicode="C" horiz-adv-x="1341" d="M1175 237l35 -44q-52 -49 -109 -87q-59 -40 -124 -66q-66 -27 -143 -42q-71 -14 -168 -14q-152 0 -269 52q-119 53 -197 150q-78 98 -111 234q-34 139 -13 305q19 163 89 301q69 136 174 234q105 97 243 152q134 53 295 53q203 0 450 -104l-40 -326h-50q-41 0 -38 49 q4 68 16 222q-151 69 -349 69q-132 0 -248 -45t-207 -130q-87 -81 -149 -205q-60 -120 -78 -270q-19 -150 10 -274q28 -119 97 -205q66 -82 168 -128q98 -44 225 -44q81 0 140 10q65 11 116 31q56 22 101 50q55 34 96 69q4 3 10 7q5 3 11 3q11 0 17 -7z" />
<glyph unicode="D" horiz-adv-x="1562" d="M1476 1026q34 -138 13 -301q-21 -169 -87 -302q-65 -132 -169 -228q-103 -96 -236 -145q-135 -50 -288 -50h-503h-172l5 41q5 35 45 36q1 0 7 0.5t12 0.5q26 0 46 1q10 1 33 1.5t34 0.5l158 1287q-11 0 -33.5 0.5t-32.5 1.5q-20 1 -46 1q-6 0 -12 0.5t-7 0.5 q-41 2 -36 36l5 41h172h503q153 0 276 -50q119 -48 200 -145q80 -95 113 -228zM1306 454q57 119 75 271q18 151 -9 270t-93 201q-64 80 -169 125q-101 43 -233 43h-398l-157 -1279h398q133 0 244 43q113 44 199 125q85 81 143 201z" />
<glyph unicode="E" horiz-adv-x="1273" d="M384 1449h869l-11 -87l-26 -213h-50q-41 0 -38 50q1 27 12 163h-661l-72 -586h577l-11 -85h-576l-75 -604h661q1 8 5.5 31.5t7.5 39.5q2 11 4.5 26t4 24.5t2.5 15.5q3 23 4 26q9 50 51 50h49l-26 -213l-10 -87h-869h-172l5 41q5 35 45 36q1 0 7 0.5t12 0.5q26 0 46 1 q10 1 33 1.5t34 0.5l158 1287q-11 0 -33.5 0.5t-32.5 1.5q-20 1 -46 1q-6 0 -12 0.5t-7 0.5q-41 2 -36 36l5 41h172z" />
<glyph unicode="F" horiz-adv-x="1288" d="M1253 1449h13l-37 -300h-50q-41 0 -38 50q2 16 12 163h-674l-75 -609h541l-10 -87h-541l-72 -585q11 0 33.5 -0.5t32.5 -1.5q20 -1 46 -1q6 0 12 -0.5t7 -0.5q41 -1 36 -36l-5 -41h-172h-106h-172l5 41q5 35 45 36q1 0 7 0.5t12 0.5q26 0 46 1q10 1 33 1.5t34 0.5 l158 1287q-11 0 -33.5 0.5t-32.5 1.5q-20 1 -46 1q-6 0 -12 0.5t-7 0.5q-41 2 -36 36l5 41h172h817h52z" />
<glyph unicode="G" horiz-adv-x="1426" d="M920 657h400l-63 -515q-52 -33 -121 -67q-63 -31 -131 -50q-76 -21 -147 -31q-74 -10 -169 -10q-158 0 -280 52q-123 52 -204 150q-80 97 -115 234q-35 138 -14 305t89 305q67 135 174 233t247 150t308 52q110 0 258 -30q147 -30 240 -74l-41 -326h-49q-41 0 -38 49 q11 154 16 220q-144 71 -400 71q-142 0 -260 -45q-121 -46 -210 -129q-91 -85 -149 -205q-59 -123 -77 -271q-19 -151 10 -275q29 -123 98 -207q68 -83 175 -129q105 -45 239 -45q79 0 138 7q60 7 117 23q48 13 104 38q67 30 102 49l48 391h-278q-11 0 -18 7t-6 16z" />
<glyph unicode="H" horiz-adv-x="1693" d="M1625 1372q-1 0 -7.5 -0.5t-12.5 -0.5q-25 0 -45 -1q-10 -1 -33 -1.5t-35 -0.5l-158 -1287q11 0 34 -0.5t33 -1.5q20 -1 45 -1q6 0 12.5 -0.5t7.5 -0.5q40 -1 36 -36l-5 -41h-173h-105h-172l5 41q4 35 45 36q1 0 7 0.5t12 0.5q26 0 46 1q10 1 33 1.5t34 0.5l75 613h-907 l-75 -613q11 0 33.5 -0.5t32.5 -1.5q20 -1 46 -1q6 0 12 -0.5t7 -0.5q41 -1 36 -36l-5 -41h-172h-106h-172l5 41q5 35 45 36q1 0 7 0.5t12 0.5q26 0 46 1q10 1 33 1.5t34 0.5l158 1287q-11 0 -33.5 0.5t-32.5 1.5q-20 1 -46 1q-6 0 -12 0.5t-7 0.5q-41 2 -36 36l5 41h172 h105h173l-5 -41q-5 -34 -45 -36q-1 0 -7.5 -0.5t-12.5 -0.5q-25 0 -45 -1q-10 -1 -33 -1.5t-34 -0.5l-73 -595h907l73 595q-11 0 -34 0.5t-33 1.5q-20 1 -45 1q-6 0 -12 0.5t-7 0.5q-20 1 -29.5 10t-7.5 26l5 41h173h105h173l-5 -41q-4 -34 -45 -36z" />
<glyph unicode="I" horiz-adv-x="680" d="M612 1372q-1 0 -7 -0.5t-12 -0.5q-26 0 -46 -1q-11 -1 -33 -1.5t-34 -0.5l-158 -1287q11 0 33.5 -0.5t32.5 -1.5q20 -1 46 -1q6 0 12 -0.5t7 -0.5q41 -1 36 -36l-5 -41h-172h-106h-172l5 41q5 35 45 36q1 0 7 0.5t12 0.5q26 0 46 1q10 1 33 1.5t34 0.5l158 1287 q-11 0 -33.5 0.5t-32.5 1.5q-20 1 -46 1q-6 0 -12 0.5t-7 0.5q-41 2 -36 36l5 41h172h106h172l-5 -41q-5 -34 -45 -36z" />
<glyph unicode="J" horiz-adv-x="1030" d="M839 1449h172l-5 -41q-4 -34 -45 -36q-1 0 -7 -0.5t-12 -0.5q-26 0 -46 -1q-10 -1 -33 -1.5t-34 -0.5l-109 -885q-15 -125 -56 -215q-41 -91 -106 -156q-62 -62 -148 -96q-81 -32 -184 -32q-50 0 -93 7q-49 8 -94 22q2 7 7 29q4 20 6 29q2 6 10 16q6 7 21 7q9 0 21 -3 q3 -1 13 -3.5t17 -4.5q23 -6 40 -8q22 -3 53 -3q78 0 144 24q61 22 115 76q51 53 83 128q33 77 46 181l108 887q-12 0 -35 0.5t-35 1.5q-23 1 -53 1q-8 0 -16 1h-7q-41 2 -36 36l5 41h187h106z" />
<glyph unicode="K" horiz-adv-x="1471" d="M1286 77q40 -1 36 -36l-5 -41h-43h-85h-25h-9h-272l5 41q4 35 45 36h26q6 0 26 0.5t34 0.5q13 0 36 0.5t32 0.5l-492 575q-14 16 -18 20q-6 6 -20 14q-8 5 -27 8q-11 2 -40 2h-93l-76 -617q11 0 33.5 -0.5t32.5 -1.5q20 -1 46 -1q6 0 12 -0.5t7 -0.5q40 -1 36 -36l-5 -41 h-172h-105h-172l5 41q5 35 45 36q1 0 7 0.5t12 0.5q26 0 46 1q11 1 33 1.5t34 0.5l158 1289q-11 0 -33.5 0.5t-32.5 1.5q-20 1 -46 1q-6 0 -12 0.5t-7 0.5q-41 2 -36 36l5 41h172h105h172l-5 -41q-4 -34 -45 -36q-1 0 -7 -0.5t-12 -0.5q-26 0 -46 -1q-10 -1 -33 -1.5 t-34 -0.5l-72 -590h86q14 0 34 2q14 1 26 6q15 6 24 12q21 15 24 18l604 552q-9 0 -30.5 0.5t-34.5 0.5t-32 0.5t-25 0.5h-25q-40 2 -36 36l5 41h263h19h143l-5 -41q-5 -34 -45 -36h-12q-2 0 -11 -0.5t-16 -0.5q-6 0 -18.5 -1t-19.5 -1l-625 -570q-24 -23 -39 -32 q-13 -10 -35 -18q22 -6 36 -19q16 -14 30 -34l516 -616q28 -2 39 -2q7 0 16 -0.5t11 -0.5h12z" />
<glyph unicode="L" horiz-adv-x="1139" d="M999 270h9h40l-18 -149l-10 -83l-5 -38h-17h-18h-774h-172l5 41q5 35 45 36q1 0 7 0.5t12 0.5q26 0 46 1q10 1 33 1.5t34 0.5l158 1287q-11 0 -33.5 0.5t-32.5 1.5q-20 1 -46 1q-6 0 -12 0.5t-7 0.5q-41 2 -36 36l5 41h172h104h173l-5 -41q-4 -34 -45 -36q-1 0 -7.5 -0.5 t-12.5 -0.5q-25 0 -45 -1q-10 -1 -33 -1.5t-34 -0.5l-157 -1279h599q6 36 14 73q8 38 9 42q4 16 4 17q9 49 51 49z" />
<glyph unicode="M" horiz-adv-x="2007" d="M1938 1372q-1 0 -7 -0.5t-12 -0.5q-26 0 -46 -1q-11 -1 -33 -1.5t-34 -0.5l-158 -1287q11 0 34 -0.5t33 -1.5q20 -1 45 -1q6 0 12 -0.5t7 -0.5q41 -1 36 -36l-5 -41h-172h-92h-177l5 41q4 35 45 36q1 0 7 0.5t13 0.5q27 0 48 1q11 1 34 1.5t35 0.5l141 1154q1 14 10 56 l-694 -1012q-18 -27 -45 -27h-16q-26 0 -38 27l-461 1013q0 -21 -4 -57l-142 -1154q12 0 34.5 -0.5t33.5 -1.5q21 -1 48 -1q7 0 13 -0.5t7 -0.5q20 -1 29.5 -10t7.5 -26l-5 -41h-178h-91h-172l5 41q5 35 45 36q1 0 7 0.5t12 0.5q26 0 46 1q10 1 33 1.5t34 0.5l158 1287 q-11 0 -33.5 0.5t-32.5 1.5q-20 1 -46 1q-6 0 -12 0.5t-7 0.5q-41 2 -36 36l5 41h172h72q14 0 23 -3q8 -3 14 -17l461 -1007q11 -25 19 -62q9 19 17 33q7 13 19 30l693 1006q12 15 18 17q9 3 23 3h73h172l-5 -41q-5 -34 -45 -36z" />
<glyph unicode="N" horiz-adv-x="1693" d="M1502 1449h173l-5 -41q-4 -34 -45 -36q-1 0 -7.5 -0.5t-12.5 -0.5q-25 0 -45 -1q-10 -1 -33.5 -1.5t-34.5 -0.5l-168 -1368h-50q-23 0 -35 21l-788 1257q0 -22 -4 -58l-140 -1139q12 0 34.5 -0.5t33.5 -1.5q21 -1 48 -1q7 0 13 -0.5t7 -0.5q41 -1 36 -36l-5 -41h-177h-91 h-172l5 41q5 35 45 36q1 0 7 0.5t12 0.5q26 0 46 1q10 1 33 1.5t34 0.5l158 1287q-11 0 -33.5 0.5t-32.5 1.5q-20 1 -46 1q-6 0 -12 0.5t-7 0.5q-41 2 -36 36l5 41h172h51q12 0 22 -4q8 -3 16 -16l784 -1255q0 21 4 59l139 1135q-12 0 -34.5 0.5t-33.5 1.5q-21 1 -47 1 q-7 0 -14 1h-7q-40 2 -36 36l5 41h177h92z" />
<glyph unicode="O" horiz-adv-x="1530" d="M1458 725q-21 -170 -88 -305q-67 -136 -170 -233q-104 -98 -236 -150t-288 -52q-154 0 -273 52q-121 53 -200 150q-78 96 -113 233q-35 138 -14 305q21 169 88 304t171 233t236 150q135 53 286 53q157 0 276 -52t199 -150t113 -234q34 -140 13 -304zM1349 725 q18 154 -8 272q-27 121 -93 205t-168 129q-100 44 -234 44q-131 0 -241 -44q-113 -45 -200 -129q-89 -86 -145 -205q-58 -125 -76 -272q-18 -153 9 -273q27 -119 95 -204q69 -86 168 -128q103 -44 231 -44q130 0 244 44q111 43 199 128q87 84 144 204t75 273z" />
<glyph unicode="P" horiz-adv-x="1238" d="M1108 1337q116 -111 90 -318q-12 -96 -57 -175t-119 -138q-71 -56 -172 -90q-101 -32 -219 -32h-249l-61 -503q11 0 33.5 -0.5t32.5 -1.5q20 -1 46 -1q6 0 12 -0.5t7 -0.5q40 -1 36 -36l-5 -41h-172h-105h-172l5 41q5 35 45 36q1 0 7 0.5t12 0.5q26 0 46 1q10 1 33 1.5 t34 0.5l158 1287q-11 0 -33.5 0.5t-32.5 1.5q-20 1 -46 1q-6 0 -12 0.5t-7 0.5q-41 2 -36 36l5 41h172h353q254 0 371 -112zM1048 879q37 67 46 140q21 166 -72 257q-92 90 -295 90h-249l-85 -698h248q98 0 175 26q78 27 138 74q58 46 94 111z" />
<glyph unicode="Q" horiz-adv-x="1529" d="M1457 725q-13 -108 -48 -206q-37 -104 -84 -179q-51 -81 -118 -145q-69 -66 -146 -111l327 -403h-88q-24 0 -36 5q-18 7 -27 20l-268 334q-62 -25 -141 -41q-69 -14 -153 -14q-154 0 -273 52q-121 53 -200 150q-78 96 -113 233q-35 138 -14 305q21 169 88 304t171 233 t236 150q135 53 286 53q157 0 276 -52t199 -150t113 -234q34 -140 13 -304zM1348 725q18 154 -8 272q-27 121 -93 205t-168 129q-100 44 -234 44q-131 0 -241 -44q-113 -45 -200 -129q-89 -86 -145 -205q-58 -125 -76 -272q-18 -153 9 -273q27 -119 95 -204q69 -86 168 -128 q103 -44 231 -44q130 0 244 44q111 43 199 128q87 84 144 204t75 273z" />
<glyph unicode="R" horiz-adv-x="1319" d="M1211 77q41 -1 36 -36l-5 -41h-54h-81h-10q-17 0 -28 6t-20 21l-392 587q-16 24 -33 32q-20 9 -61 9h-172l-70 -574q11 0 33.5 -0.5t32.5 -1.5q20 -1 45 -1q6 0 12.5 -0.5t7.5 -0.5q40 -1 36 -36l-5 -41h-172h-105h-172l5 41q5 35 45 36q1 0 7 0.5t12 0.5q26 0 46 1 q10 1 33 1.5t34 0.5l158 1287q-11 0 -33.5 0.5t-32.5 1.5q-20 1 -46 1q-6 0 -12 0.5t-7 0.5q-41 2 -36 36l5 41h172h352q251 0 363 -97q111 -97 89 -284q-11 -86 -47 -152q-38 -70 -97 -120q-62 -53 -140 -85q-77 -32 -177 -43q22 -15 39 -41l369 -548q7 0 18.5 -0.5 t17.5 -0.5q7 0 16 -0.5t11 -0.5h13zM635 733q94 0 175 23q78 22 137 66q58 43 93 104q36 63 45 136q19 153 -73 229q-91 75 -286 75h-248l-77 -633h234z" />
<glyph unicode="S" horiz-adv-x="1061" d="M929 572q24 -59 13 -149q-10 -88 -52 -172q-37 -75 -108 -139q-64 -58 -157 -94q-89 -34 -201 -34q-203 0 -380 79l3 28l4 25l33 272h50q41 0 38 -50q0 -4 -3 -37q-3 -32 -6 -83q-1 -19 -3.5 -50.5t-3.5 -40.5q109 -56 282 -56q85 0 157 26q69 25 123 71q52 45 84 107 t41 133q9 77 -16 126q-26 50 -72 83q-47 34 -110 56q-74 26 -128 44q-68 22 -128 48q-64 28 -108 68q-46 42 -70 103q-24 62 -12 156q9 73 45 140q36 68 96 119q61 52 142 83t182 31q180 0 364 -84l-36 -297h-50q-41 0 -38 50q0 4 1.5 26.5t5 68.5t7.5 97q-116 52 -264 52 q-80 0 -142 -22t-108 -62q-47 -41 -73 -90q-27 -50 -34 -107q-9 -75 16 -122q24 -46 73 -82q47 -35 109 -57q55 -20 128 -45q63 -22 128 -50q60 -26 108 -68q45 -40 70 -101z" />
<glyph unicode="T" horiz-adv-x="1269" d="M1232 1449h15l-37 -301h-49q-41 0 -38 50q0 19 11 162h-421l-157 -1279q11 0 33.5 -0.5t32.5 -1.5q20 -1 46 -1q6 0 12 -0.5t7 -0.5q41 -1 36 -36l-5 -41h-172h-105h-172l5 41q4 35 45 36q1 0 7 0.5t12 0.5q26 0 46 1q10 1 33 1.5t34 0.5l157 1279h-424 q-7 -39 -13.5 -78.5t-10 -58.5t-4.5 -25q-9 -50 -50 -50h-50l37 301h14h30h1067h28z" />
<glyph unicode="U" d="M1354 1449h173l-5 -41q-4 -34 -45 -36q-1 0 -7.5 -0.5t-12.5 -0.5q-25 0 -45 -1q-10 -1 -33.5 -1.5t-34.5 -0.5l-100 -815q-15 -123 -65 -224q-51 -104 -131 -181q-81 -78 -188 -121q-109 -44 -234 -44q-127 0 -224 44t-158 121q-62 78 -87 181q-25 102 -10 224l100 815 q-11 0 -34 0.5t-33 1.5q-20 1 -45 1q-6 0 -12.5 0.5t-7.5 0.5q-41 2 -36 36l5 41h173h105h199l-5 -41q-4 -34 -46 -36h-8q-8 -1 -17 -1q-34 0 -59 -1q-12 0 -37 -1t-37 -1l-100 -814q-12 -103 7 -189q20 -88 69 -152q49 -63 127 -101q77 -37 182 -37q104 0 191 36 q84 35 152 101q66 65 107 152q41 88 53 189l100 815q-12 0 -36.5 1t-36.5 1q-24 1 -58 1q-8 0 -17 1h-9q-41 2 -36 36l5 41h198h104z" />
<glyph unicode="V" horiz-adv-x="1547" d="M1441 1449h87l-5 -41q-5 -34 -45 -36h-5q-5 -1 -9 -1q-16 0 -27 -1q-6 -1 -19 -1.5t-20 -0.5l-732 -1368h-94l-396 1368q-7 0 -20 0.5t-19 1.5q-11 1 -26 1q-4 0 -9 1h-5q-41 2 -36 36l5 41h86h83h219l-5 -41q-5 -34 -45 -36q-1 0 -6.5 -0.5t-10.5 -0.5q-21 0 -39 -1 q-9 -1 -30.5 -1.5t-32.5 -0.5l331 -1149q12 -43 19 -100q18 54 42 100l612 1149q-11 0 -32.5 0.5t-30.5 1.5q-18 1 -39 1q-5 0 -10.5 0.5t-6.5 0.5q-40 2 -36 36l5 41h216h5h81z" />
<glyph unicode="W" horiz-adv-x="2242" d="M2138 1449h86l-5 -41q-5 -34 -45 -36h-5q-5 -1 -8 -1q-14 0 -24 -1q-5 -1 -17 -1.5t-18 -0.5l-598 -1368h-94l-274 1257q-6 29 -8 53q-10 -31 -20 -53l-584 -1257h-93l-263 1368q-6 0 -17.5 0.5t-16.5 1.5q-10 1 -24 1q-4 0 -8 0.5t-5 0.5q-41 2 -36 36l5 41h86h86h216 l-5 -41q-5 -34 -45 -36q-1 0 -6.5 -0.5t-10.5 -0.5q-21 0 -40 -1q-10 -1 -31 -1.5t-32 -0.5l209 -1138q4 -28 5 -44q1 -10 2.5 -26.5t1.5 -22.5l8.5 25.5t7.5 23.5t18 44l556 1191q8 15 17 20q13 8 25 8h29q12 0 22 -8q9 -7 12 -20l264 -1191q3 -16 7 -43q4 -29 5 -48 q2 5 5 15t5.5 18t4.5 15q8 25 16 43l488 1138q-11 0 -33 0.5t-32 1.5q-19 1 -42 1q-5 0 -11 0.5t-7 0.5q-41 2 -36 36l5 41h216h6h80z" />
<glyph unicode="X" horiz-adv-x="1537" d="M1324 77q40 -1 36 -36l-5 -41h-60h-31h-72h-10h-220l5 41q5 35 45 36q2 0 6.5 0.5t8.5 0.5q20 0 38 1q9 1 30.5 1.5t32.5 0.5l-344 612q-5 -13 -18 -29l-481 -583h1q11 0 33 -0.5t32 -1.5q19 -1 43 -1q5 0 10.5 -0.5t6.5 -0.5q20 -1 29.5 -10t7.5 -26l-5 -41h-234h-10 h-59h-37h-66l5 41q4 35 45 36l5 1h9q16 0 28 1q6 1 20.5 1.5t21.5 0.5l547 662l-366 625q-7 0 -20.5 0.5t-19.5 1.5q-12 1 -28 1q-4 0 -9 1h-5q-40 2 -36 36l5 41h66h29h74h3h226l-5 -41q-4 -34 -46 -36q-1 0 -6 -0.5t-9 -0.5q-19 0 -37 -1q-10 -1 -30 -1.5t-31 -0.5 l328 -574q5 10 8 15q5 9 11 16l449 543q-11 0 -33 0.5t-32 1.5q-19 1 -43 1q-5 0 -11 0.5t-7 0.5q-41 2 -36 36l5 41h233h7h62h39h65l-5 -41q-5 -34 -45 -36h-5q-5 -1 -9 -1q-17 0 -29 -1q-6 -1 -20 -1.5t-21 -0.5l-518 -619l383 -668q6 0 18.5 -0.5t17.5 -1.5q10 -1 25 -1 h9z" />
<glyph unicode="Y" horiz-adv-x="1392" d="M1308 1449h65l-5 -41q-4 -34 -45 -36q-19 -1 -44 -2.5t-32 -1.5l-579 -770l-64 -517q11 0 34 -0.5t33 -1.5q20 -1 45 -1q6 0 12 -0.5t7 -0.5q41 -1 36 -36l-5 -41h-172h-105h-173l5 41q5 35 45 36q1 0 7.5 0.5t12.5 0.5q25 0 45 1q10 1 33.5 1.5t34.5 0.5l63 517 l-390 770q-7 0 -32.5 1.5l-42.5 2.5q-41 2 -36 36l5 41h65h11h80h16h206l-5 -41q-5 -34 -45 -36q-1 0 -6.5 -0.5t-9.5 -0.5q-19 0 -36 -1q-9 -1 -27 -1.5t-28 -0.5l305 -610q11 -22 19 -46q6 -19 13 -44q8 18 24 44q11 19 30 46l454 610q-9 0 -28 0.5t-27 1.5q-16 1 -36 1 q-4 0 -9 0.5t-6 0.5q-40 2 -36 36l5 41h205h15h82h11z" />
<glyph unicode="Z" horiz-adv-x="1307" d="M1283 1413q-3 -22 -19 -42l-1077 -1284h818q2 14 16 85q3 15 7.5 36t5.5 26q1 6 2.5 12.5t2.5 10t1 4.5q9 49 50 49h50l-38 -310h-1065l5 38q3 22 16 37l1080 1287h-800q-2 -13 -16 -85q-3 -15 -7.5 -36t-5.5 -26q-1 -6 -2.5 -12.5t-2.5 -10t-1 -4.5q-9 -49 -50 -49h-50 l38 310h1047z" />
<glyph unicode="[" horiz-adv-x="631" d="M51 -270l224 1823h326l-5 -36q-2 -14 -11 -22q-10 -8 -24 -8h-211l-208 -1691h211q14 0 22 -8q7 -8 6 -21l-4 -37h-326z" />
<glyph unicode="\" horiz-adv-x="669" d="M75 1490h42q39 0 50 -38l448 -1538h-39q-16 0 -33 10q-15 9 -21 30z" />
<glyph unicode="]" horiz-adv-x="648" d="M41 -233q1 13 11 21t24 8h211l207 1691h-211q-13 0 -21 8t-6 22l5 36h324l-224 -1823h-324z" />
<glyph unicode="^" horiz-adv-x="907" d="M504 1449h62l272 -630h-70q-10 0 -19 7q-7 6 -12 17l-192 446q-3 7 -6.5 18t-5.5 15q-6 15 -9 32q-2 -4 -4.5 -10.5t-5 -12t-5.5 -10.5q-2 -4 -20 -32l-301 -446q-8 -11 -15 -16q-10 -8 -22 -8h-73z" />
<glyph unicode="_" horiz-adv-x="1154" d="M976 -210l-8 -70h-807l8 70h807z" />
<glyph unicode="`" horiz-adv-x="514" d="M222 1465q25 0 36 -7q12 -8 21 -25l130 -244h-55q-11 0 -20 3q-8 3 -16 14l-190 259h94z" />
<glyph unicode="a" horiz-adv-x="1028" d="M879 77q41 -1 36 -36l-5 -41h-135h-24h-23q-20 0 -27 9q-8 10 -8 23l34 320q-39 -82 -85 -149q-44 -64 -100 -115q-50 -46 -111 -74q-59 -27 -121 -27q-65 0 -112 25q-49 26 -81 71q-31 44 -48 112t-17 147q0 88 23 175t64 162q42 77 99 141q59 67 126 112q71 48 148 74 t163 26q63 0 114 -10q53 -11 106 -38l-110 -904q32 -2 46 -2q9 0 20 -0.5t13 -0.5h15zM662 338q44 82 81 187l52 414q-60 21 -131 21q-68 0 -134 -23q-61 -21 -121 -64q-53 -38 -104 -98q-51 -61 -83 -123q-35 -68 -54 -142q-18 -69 -18 -152q0 -138 46 -214t146 -76 q58 0 115 33q59 34 108 92q52 61 97 145z" />
<glyph unicode="b" horiz-adv-x="1070" d="M933 906q89 -129 57 -390q-13 -107 -55 -208q-40 -97 -107 -168q-68 -72 -153 -112q-88 -41 -195 -41q-138 0 -401 57l6 52l161 1313q-9 0 -25 0.5t-24 1.5q-15 1 -31 1q-3 0 -8.5 0.5t-7.5 0.5h-10q-20 1 -29.5 10t-7.5 26l5 41h148h98l-79 -649q77 89 174 142 q95 52 207 52q188 0 277 -129zM844 332q33 84 45 184q28 226 -43 334q-71 107 -228 107q-102 0 -190 -52q-87 -52 -164 -145l-80 -653q205 -43 287 -43q92 0 162 32q71 33 124 93q56 64 87 143z" />
<glyph unicode="c" horiz-adv-x="917" d="M778 164l23 -33q-25 -28 -67 -57q-39 -27 -86 -46q-53 -21 -102 -31q-51 -10 -111 -10q-100 0 -174 35q-77 36 -125 102q-49 67 -70 165q-20 94 -5 221q15 117 57 213q42 97 110 166t157 108q88 38 201 38q38 0 105 -16q85 -20 121 -32l52 -16l-32 -256h-50q-41 0 -38 49 v8q1 9 1 17q0 9 2 57q2 55 4 78q-92 34 -169 34q-89 0 -160 -31q-74 -32 -126 -89t-88 -142q-37 -87 -48 -186q-13 -106 2 -190q15 -83 54 -140t101 -87q59 -29 142 -29q75 0 125 17q56 19 87 38q40 25 56 38q20 17 32 17q13 0 19 -10z" />
<glyph unicode="d" horiz-adv-x="1092" d="M994 41l-2 -10l-4 -31h-137h-53q-24 0 -26 27l9 160q-81 -94 -176 -146q-97 -54 -210 -54q-189 0 -277 130q-88 131 -57 390q14 112 54 208q40 97 107 168q68 72 153 112q88 41 196 41q105 0 174 -38q73 -40 118 -112l64 523q-9 0 -25.5 0.5t-24.5 1.5q-15 1 -30 1 q-3 0 -8.5 0.5t-7.5 0.5h-11q-40 1 -36 36l5 41h148h97l-173 -1409q8 0 22.5 -0.5t21.5 -1.5q13 -1 28 -1q3 0 7.5 -0.5t6.5 -0.5h10q20 -1 29.5 -10t7.5 -26zM786 263l66 538q-50 89 -115 123q-68 36 -157 36q-90 0 -162 -33q-73 -33 -125 -93q-54 -62 -86 -143 q-35 -88 -46 -184q-28 -226 43 -334q71 -107 228 -107q102 0 190 52q87 52 164 145z" />
<glyph unicode="e" horiz-adv-x="897" d="M840 824q0 -42 -12 -80q-12 -37 -40 -71q-29 -35 -77 -64q-51 -31 -126 -56t-184 -45q-115 -21 -249 -35q-1 -7 -2.5 -21t-1.5 -21q-1 -14 -1 -42q0 -151 70 -238t208 -87q55 0 98 12t78 30t60 39q38 31 47 39q6 5 18 16t17 15q14 11 27 11t22 -10l22 -27 q-46 -49 -98 -91q-48 -39 -96 -63q-51 -26 -101 -37q-48 -11 -111 -11q-86 0 -151 28q-67 29 -112 80q-43 49 -68 126q-24 74 -24 166q0 72 16 155q15 76 45 149q29 70 75 134q44 62 102 109q55 45 127 73q66 26 150 26q76 0 127 -21q52 -21 84 -52q29 -28 46 -68 q15 -36 15 -68zM563 962q-81 0 -148 -35q-64 -34 -116 -93q-51 -58 -85 -134t-51 -159q145 17 224 33q98 20 160 40q65 21 106 45q38 22 63 51q22 25 30 54t8 57q0 19 -10 47q-8 23 -32 45q-23 22 -59 35q-37 14 -90 14z" />
<glyph unicode="f" horiz-adv-x="971" d="M897 1462q33 -6 55 -16l-9 -47q-3 -15 -21 -15q-5 0 -33 4q-21 3 -52 3q-49 0 -94 -15q-44 -15 -79 -48q-34 -33 -58 -85t-33 -130l-16 -126h331l-9 -73h-328l-112 -912q-12 -98 -47 -172q-35 -73 -90 -119q-56 -47 -129 -69t-165 -22v49q0 33 37 33q55 2 101 17 q50 17 90 52q39 34 68 93q27 54 38 141l111 907l-142 10q-30 1 -27 25l5 40h173l16 129q10 86 41 153q30 66 77 110q46 43 107 66q59 22 130 22q38 0 64 -5z" />
<glyph unicode="g" horiz-adv-x="1043" d="M854 756q-1 -56 -15 -103q-13 -45 -34 -84t-45 -72q-8 -11 -44 -65q-20 -30 -34 -64q-13 -32 -13 -70q0 -32 12 -57q14 -30 30 -51q4 -5 40 -49q19 -23 39 -53q18 -27 30 -60t12 -73q0 -66 -32 -124q-33 -60 -92 -106q-62 -48 -143 -74q-87 -28 -186 -28q-78 0 -148 17 q-71 17 -116 47q-48 32 -75 76q-27 45 -27 102q0 74 39 131q39 56 104 95t154 60q83 20 188 20q34 0 69 -3q49 -4 71 -7q-17 22 -29 50q-12 27 -12 60q0 35 12 73q11 34 47 89q-44 -30 -88 -44q-46 -15 -102 -15q-60 0 -109 18t-86 55q-36 36 -57 89q-20 50 -20 122 q0 73 25 139q28 74 72 122q49 53 118 85q67 32 158 32q54 0 99 -13q48 -14 82 -38h266l-4 -33q-1 -10 -8 -18q-6 -8 -21 -9l-166 -14q19 -34 29 -70q10 -37 10 -85zM743 -51q0 51 -16 86t-40 65l1 -3q-67 10 -95 12q-45 3 -87 3q-103 0 -176 -19q-77 -20 -125 -52 q-48 -30 -74 -75q-26 -44 -26 -90q0 -43 20 -78q20 -36 57 -58q39 -24 89 -35q53 -12 116 -12q79 0 145 21q65 21 113 58q47 36 72 82q24 45 26 95zM488 437q65 0 118 28q51 27 87 72q38 48 55 101q18 57 18 115q0 107 -56 160q-57 54 -152 54q-65 0 -117 -26 q-48 -24 -86 -70q-37 -44 -54 -98q-18 -55 -18 -115q0 -108 55 -164q56 -57 150 -57z" />
<glyph unicode="h" horiz-adv-x="1125" d="M994 77q20 -1 29.5 -10t7.5 -26l-5 -41h-148h-98l80 651q18 143 -38 225q-55 81 -190 81q-100 0 -193 -51q-91 -50 -171 -142l-51 -416l-9 -68l-24 -199l-10 -81h-97l10 81l163 1328q-9 0 -25.5 0.5t-24.5 1.5q-15 1 -31 1q-3 0 -8 0.5t-7 0.5h-11q-41 1 -36 36l5 41h148 h97l-79 -645q83 89 178 139q98 51 210 51q85 0 144 -26q61 -27 97 -77q35 -48 49 -121q13 -68 2 -160l-70 -570q9 0 25 -0.5t24 -1.5q15 -1 31 -1q3 0 8.5 -0.5t7.5 -0.5h10z" />
<glyph unicode="i" horiz-adv-x="452" d="M315 77q41 -1 36 -36l-5 -41h-148h-97l20 164l95 774q-9 0 -25.5 0.5t-24.5 1.5q-15 1 -31 1q-3 0 -8 0.5t-7 0.5h-11q-41 2 -36 36l5 41h148h97l-115 -938q9 0 25.5 -0.5t24.5 -1.5q15 -1 31 -1q3 0 8 -0.5t7 -0.5h11zM247 1308q-12 14 -16 28q-5 20 -3 34q3 19 12 35 q10 19 23 30t31 19q17 7 36 7t33 -7q18 -9 27 -19t16 -30q6 -17 3 -35q-3 -20 -11 -34q-7 -13 -24 -28q-14 -12 -31 -20q-17 -7 -36 -7q-20 0 -34 7q-15 8 -26 20z" />
<glyph unicode="j" horiz-adv-x="635" d="M603 1405q6 -17 3 -35q-3 -17 -12 -34q-8 -15 -23 -28q-14 -12 -31 -20q-17 -7 -36 -7q-20 0 -34 7q-15 8 -26 20q-12 14 -16 28q-5 20 -3 34q4 21 11 35q9 17 24 30q13 11 31 19q17 7 35 7q20 0 34 -7q17 -8 26 -19q10 -12 17 -30zM423 1019h97l-141 -1149 q-6 -53 -27 -98q-21 -46 -56 -79q-34 -32 -82 -52q-47 -19 -109 -19q-28 0 -53 5q-17 3 -44 17l11 49q3 12 16 12q10 0 23 -4t40 -4q83 0 128 45q46 46 56 128l131 1068q-9 0 -25.5 0.5t-24.5 1.5q-15 1 -30 1q-3 0 -8.5 0.5t-7.5 0.5h-11q-40 2 -36 36l5 41h148z" />
<glyph unicode="k" horiz-adv-x="1007" d="M871 1019h107l-5 -41q-5 -34 -45 -36h-4q-5 -1 -9 -1q-3 0 -12 -0.5t-14 -0.5q-20 -2 -34 -2l-408 -346q-7 -7 -21 -19q-10 -8 -23 -15q14 -7 26 -19q5 -6 20 -25l346 -434q6 0 17.5 -0.5t16.5 -0.5q6 0 13.5 -0.5t8.5 -0.5q2 0 6 -0.5t6 -0.5h9q40 -1 36 -36l-5 -41h-45 h-79h-6q-15 0 -25 6t-20 17l-372 459q-17 20 -28 25q-16 7 -45 7h-46l-30 -247l-33 -267h-97l10 81l163 1328q-9 0 -25.5 0.5t-24.5 1.5q-15 1 -31 1q-3 0 -8 0.5t-7 0.5h-11q-41 1 -36 36l5 41h148h97l-111 -908h47q15 0 27 4q14 5 31 19l394 335q-14 0 -26.5 0.5t-18 1 t-6.5 0.5q-40 2 -36 36l5 41h167h41z" />
<glyph unicode="l" horiz-adv-x="423" d="M291 77q41 -1 36 -36l-5 -41h-148h-97l10 81l163 1328q-9 0 -25.5 0.5t-24.5 1.5q-15 1 -31 1q-3 0 -8 0.5t-7 0.5h-11q-41 1 -36 36l5 41h148h97l-173 -1409q9 0 25.5 -0.5t24.5 -1.5q15 -1 31 -1q3 0 8 -0.5t7 -0.5h11z" />
<glyph unicode="m" horiz-adv-x="1679" d="M1543 77q41 -1 36 -36l-5 -41h-148h-97l80 651q18 151 -37 228q-55 78 -175 78q-54 0 -104 -19q-52 -20 -93 -58q-43 -40 -71 -96q-29 -58 -38 -133l-42 -335l-38 -316h-1h-97l80 651q18 149 -31 228q-49 78 -164 78q-83 0 -159 -49q-77 -50 -143 -138l-59 -481l-17 -133 l-9 -75l-10 -81h-97l10 81l105 857q-9 0 -25.5 0.5t-24.5 1.5q-15 1 -30 1h-16q-2 0 -6 0.5t-5 0.5q-40 2 -36 36l5 41h148h53q26 0 28 -26l-9 -147q33 40 73 77q37 34 80 60q40 24 86 38q47 14 94 14q111 0 170 -65t68 -181q25 63 65 110q39 46 85 76t99 45t106 15 q77 0 133 -25q58 -26 93 -74q38 -52 51 -121q14 -74 2 -164l-70 -570q9 0 25.5 -0.5t24.5 -1.5q15 -1 31 -1q3 0 8 -0.5t7 -0.5h11z" />
<glyph unicode="n" horiz-adv-x="1158" d="M1022 77q40 -1 36 -36l-5 -41h-148h-98l80 651q18 145 -37 225q-56 81 -191 81q-100 0 -193 -51q-91 -50 -171 -142l-70 -572l-24 -192h-97l10 81l105 857q-9 0 -25.5 0.5t-24.5 1.5q-15 1 -30 1h-16q-2 0 -6 0.5t-5 0.5q-40 2 -36 36l5 41h148h53q26 0 28 -26l-10 -153 q78 86 180 141q99 54 213 54q86 0 145 -26q59 -27 96 -77q35 -48 49 -121q13 -68 2 -160l-70 -570q9 0 25 -0.5t24 -1.5q15 -1 31 -1q3 0 8.5 -0.5t7.5 -0.5h11z" />
<glyph unicode="o" horiz-adv-x="1070" d="M590 1035q111 0 192 -37t132 -106q52 -70 71 -165q19 -96 4 -217q-16 -125 -57 -216q-44 -96 -111 -165q-65 -66 -159 -105q-90 -37 -201 -37q-110 0 -191 37q-85 39 -134 105q-52 70 -71 165q-19 94 -4 216q15 124 57 217q43 96 112 165t159 106t201 37zM471 63 q90 0 163 32t124 89q53 60 86 141q33 82 45 185q12 102 0 184q-12 84 -51 142q-41 61 -102 91q-63 31 -155 31q-93 0 -164 -31q-70 -30 -124 -91q-53 -59 -86 -142q-35 -86 -46 -184q-13 -108 0 -185q14 -83 52 -141q39 -58 102 -89q66 -32 156 -32z" />
<glyph unicode="p" horiz-adv-x="1198" d="M1059 906q89 -130 57 -390q-13 -107 -55 -208q-41 -97 -106 -168t-153 -112t-195 -41q-104 0 -175 38t-117 112l-52 -416q9 0 25.5 -0.5t24.5 -1.5q15 -1 31 -1q3 0 8 -0.5t7 -0.5t6 -0.5t5 -0.5q40 -2 36 -36l-5 -40h-148h-97h-148l5 40q5 34 45 36q2 0 6 0.5t7 0.5 q17 0 34 1q27 2 61 3l150 1217q-9 0 -25.5 0.5t-24.5 1.5q-15 1 -31 1h-15q-2 0 -6 0.5t-5 0.5q-41 2 -36 36l5 41h147h54q13 0 21 -6q6 -5 6 -20l-10 -157q81 94 176 146q98 54 210 54q189 0 277 -130zM970 332q33 84 45 184q28 228 -42 334q-71 107 -228 107 q-102 0 -190 -52q-89 -53 -164 -147l-66 -535q48 -89 114 -124q64 -35 158 -35q92 0 162 32q73 33 125 93q54 62 86 143z" />
<glyph unicode="q" horiz-adv-x="1050" d="M927 -285q41 -1 36 -36l-5 -40h-148h-97l3 27l-3 -27h-148l5 40q4 35 45 36q2 0 6 0.5t7 0.5q17 0 34 1q27 2 61 3l56 461q-76 -88 -175 -142q-95 -52 -207 -52q-187 0 -276 129t-57 390q13 107 55 208q41 98 106 168q68 72 153 112q88 41 196 41q138 0 401 -57l-7 -52 l-148 -1206q9 0 25.5 -0.5t24.5 -1.5q30 -2 31 -2h15q2 0 6 -0.5t5 -0.5zM789 262l81 653q-205 43 -287 43q-92 0 -162 -32q-73 -33 -125 -93q-54 -62 -86 -143q-35 -88 -46 -184q-28 -226 43 -334q71 -107 228 -107q102 0 190 52q87 52 164 145z" />
<glyph unicode="r" horiz-adv-x="842" d="M741 1027q35 -10 70 -29l-21 -67q-5 -17 -23 -17q-5 0 -17 5q-10 5 -27 9q-18 5 -40 9q-21 4 -56 4q-117 0 -199 -72t-145 -206l-82 -663h-97l10 81l105 857q-9 0 -25.5 0.5t-24.5 1.5q-15 1 -30 1h-16q-2 0 -6 0.5t-5 0.5q-40 2 -36 36l5 41h148h51q18 0 25 -7t5 -25 l-18 -215q63 122 155 194q89 70 210 70q47 0 84 -9z" />
<glyph unicode="s" horiz-adv-x="852" d="M735 402q19 -43 12 -104q-7 -65 -40 -124t-81 -99q-52 -43 -121 -67t-154 -24q-156 0 -295 56l31 249h50q41 0 38 -50l-1 -8v-16t-2 -54q0 -2 -1 -30t-2 -43q78 -33 195 -33q64 0 115 18t88 49t59 72q21 38 27 88q6 52 -14 85q-22 35 -57 57q-35 23 -86 40 q-32 11 -100 33q-61 19 -100 35q-49 20 -85 50q-37 31 -56 72q-19 40 -11 106q6 55 36 104q31 51 78 88q49 38 114 61q63 22 142 22q110 0 264 -54l-30 -244h-49q-41 0 -38 50v24q0 8 2 52q0 3 1 29.5t2 41.5q-79 27 -159 27q-55 0 -102 -16t-83 -43q-37 -28 -58 -61 q-22 -34 -27 -75q-6 -48 15 -79q21 -32 58 -54q38 -23 85 -39q66 -22 100 -33q56 -18 100 -36q47 -19 84 -50t56 -73z" />
<glyph unicode="t" horiz-adv-x="679" d="M329 -16q-104 0 -155 57t-36 177l86 696h-147q-10 0 -17 7q-6 6 -5 17l4 38l176 12l69 365q1 7 10 16q7 7 19 7h46l-48 -389h320l-9 -73h-320l-85 -691q-5 -45 2 -72q8 -31 24 -50q16 -18 41 -28q27 -10 54 -10q35 0 65 11q27 10 49 24q26 16 34 23q14 11 21 11 q8 0 15 -10l21 -43q-43 -43 -107 -69t-127 -26z" />
<glyph unicode="u" horiz-adv-x="1156" d="M1011 77q41 -1 36 -36l-5 -41h-147h-54q-29 0 -26 27l9 151q-77 -84 -181 -141q-97 -53 -213 -53q-87 0 -145 26q-59 27 -96 77q-35 48 -49 121q-13 68 -2 160l70 570q-9 0 -25.5 0.5t-24.5 1.5q-15 1 -31 1h-15q-2 0 -6 0.5t-5 0.5q-41 2 -36 36l5 41h148h97l-80 -651 q-18 -143 38 -225t191 -82q99 0 192 51q92 50 172 141l84 685q-9 0 -25 0.5t-24 1.5q-15 1 -31 1h-15q-2 0 -6 0.5t-5 0.5q-40 2 -36 36l5 41h147h98l-116 -938q9 0 25.5 -0.5t24.5 -1.5q15 -1 31 -1q3 0 8 -0.5t7 -0.5h11z" />
<glyph unicode="v" horiz-adv-x="1190" d="M1082 1019h78l-5 -41q-5 -34 -45 -36q-1 0 -5 -0.5t-6 -0.5h-23q-10 0 -38 -2l-511 -939h-86l-281 939l-67 3q-41 2 -36 36l5 41h74h76h207l-5 -41q-4 -34 -45 -36q-2 0 -6 -0.5t-7 -0.5q-16 0 -33 -1q-9 -1 -29.5 -1.5t-31.5 -0.5l220 -748q7 -21 10 -45q2 -9 3 -21 q0 -4 0.5 -8.5t1 -8t0.5 -5.5q13 37 16 44q7 19 21 44l406 748q-9 0 -25.5 0.5t-24.5 1.5q-15 1 -30 1h-15q-2 0 -6 0.5t-5 0.5q-40 2 -36 36l5 41h204h75z" />
<glyph unicode="w" horiz-adv-x="1724" d="M1608 1019h86l-5 -41q-5 -34 -45 -36q-1 0 -5 -0.5t-6 -0.5h-23q-10 0 -38 -2l-430 -939h-71q-16 0 -21 22l-178 827q-6 29 -6 31l-3 30q-2 -6 -5.5 -16t-4.5 -14q-10 -25 -13 -31l-384 -827q-9 -22 -27 -22h-69l-199 939q-5 0 -15 0.5t-14 0.5q-5 0 -11.5 0.5t-7.5 0.5 q-2 0 -6 0.5t-5 0.5h-8q-40 2 -36 36l5 41h81h75h201l-5 -41q-5 -34 -45 -36q-2 0 -6 -0.5t-7 -0.5q-16 0 -33 -1q-9 -1 -29.5 -1.5t-31.5 -0.5l147 -748q4 -24 6 -45q3 -37 3 -43q12 34 16 43q3 8 10 23t10 22l373 811q11 23 32 23h39q22 0 27 -23l170 -811q10 -53 14 -89 q4 14 14 44q5 16 18 45l332 748q-9 0 -25 0.5t-24 1.5q-15 1 -31 1h-15q-2 0 -6 0.5t-5 0.5q-40 2 -36 36l5 41h199h72z" />
<glyph unicode="x" horiz-adv-x="1138" d="M962 77q40 -1 36 -36l-5 -41h-94h-54h-155l5 41q5 35 45 36q1 0 7.5 0.5t20 1t28.5 0.5l-224 397q-7 -20 -19 -35l-302 -362q17 0 31.5 -0.5t21.5 -1t8 -0.5q40 -1 36 -36l-5 -41h-155h-54h-94l5 41q5 35 45 36l6 1q7 0 20.5 0.5t29.5 0.5l367 442l-246 419q-40 2 -62 2 q-41 2 -36 36l5 41h46h93h1h8h155l-5 -41q-4 -34 -46 -36q-1 0 -6.5 -0.5t-17.5 -1t-25 -0.5l213 -374q5 15 22 37l280 337q-14 0 -27 0.5t-19.5 1t-7.5 0.5q-40 2 -36 36l5 41h154h11h91h46l-5 -41q-4 -34 -45 -36l-63 -3l-350 -413l260 -447q16 0 29.5 -0.5t20.5 -0.5z " />
<glyph unicode="y" horiz-adv-x="1186" d="M1080 1019h77l-5 -41q-4 -34 -45 -36q-1 0 -5 -0.5t-6 -0.5h-23q-11 0 -37 -2l-707 -1267q-6 -12 -19 -23q-10 -9 -29 -9h-70l228 398l-285 901q-61 3 -62 3q-40 2 -36 36l5 41h68h81h208l-5 -41q-5 -34 -45 -36q-2 0 -6 -0.5t-7 -0.5q-16 0 -33 -1q-9 -1 -29.5 -1.5 t-31.5 -0.5l228 -736q3 -10 7 -32q4 -19 5 -32l8 16t7 16q3 5 8 16t7 16l405 736q-9 0 -25 0.5t-24 1.5q-15 1 -30 1h-15q-2 0 -6 0.5t-5 0.5q-41 2 -36 36l5 41h205h75z" />
<glyph unicode="z" horiz-adv-x="977" d="M805 257h10h40l-32 -257h-37h-16h-728l5 39q1 16 20 38l746 865h-516q-2 -14 -7 -38.5t-6 -28.5q-5 -25 -11 -50l-2 -10t-2 -8t-1 -4q-9 -50 -50 -50h-50l32 257l1 9h736l-5 -41q-3 -22 -19 -39l-744 -862h559q4 22 12 62q8 39 10 47q5 18 5 21q9 50 50 50z" />
<glyph unicode="{" horiz-adv-x="651" d="M203 456q4 34 -3 62q-7 25 -27 49q-17 20 -46 32q-26 11 -65 11l8 63q38 0 67 11q33 12 55 32q23 20 38 49q15 28 19 62q7 55 4 110q-2 38 -8 106t-8 107q-3 57 4 112q7 62 33 115q26 54 68 93t98 61t124 22h57l-6 -43q-1 -11 -10 -17t-18 -6h-34q-42 0 -82 -16 q-37 -15 -68 -44t-50 -69q-20 -42 -26 -91q-7 -56 -4 -114q4 -71 7 -109q3 -36 7 -108q3 -48 -4 -108q-5 -38 -21 -69t-41 -56q-20 -20 -53 -39q-24 -14 -60 -23q31 -7 55 -22q25 -16 43 -40t27 -55q9 -30 4 -69q-6 -57 -22 -108q-22 -72 -34 -108t-34 -110 q-15 -49 -23 -113q-6 -51 4 -91q11 -42 32 -69q23 -29 57 -44q37 -16 78 -16h34q9 0 16 -6q8 -7 7 -17l-5 -43h-57q-68 0 -118 22q-52 23 -83 61t-45 93q-14 53 -6 116q8 57 24 111q22 72 34 107q8 24 34 106q15 47 23 110z" />
<glyph unicode="|" horiz-adv-x="420" d="M171 1553h77v-1913h-77v1913z" />
<glyph unicode="}" horiz-adv-x="667" d="M409 456q-7 -55 -4 -110q2 -38 8 -106t8 -107q3 -57 -4 -111q-7 -61 -34 -116q-26 -54 -68 -93t-98 -61t-124 -22h-56l5 43q1 11 10 17t19 6h33q43 0 83 16q37 15 68 44q29 28 49 69q20 42 26 91q8 60 5 113q-4 74 -7 110q-6 72 -8 108q-2 42 5 108q5 40 20 69 q17 32 40 55q22 22 53 40q26 15 60 22q-31 8 -54 23q-27 17 -43 39q-18 24 -27 56q-9 30 -4 69q6 51 23 108q22 72 34 108q6 16 33 109q16 55 24 114q6 51 -4 91q-11 42 -32 69q-23 29 -57 44q-37 16 -79 16h-34q-8 0 -16 6t-6 17l5 43h56q69 0 119 -22q52 -23 83 -61 t45 -93q13 -51 5 -115q-8 -65 -23 -112q-22 -72 -34 -107q-20 -59 -35 -106t-23 -110q-4 -31 4 -62q7 -27 26 -49q17 -20 46 -32q26 -11 64 -11l-8 -63q-38 0 -66 -11q-32 -13 -54 -32q-23 -20 -38 -49q-15 -28 -19 -62z" />
<glyph unicode="~" horiz-adv-x="1170" d="M787 581q39 0 71 13q30 12 57 39q23 23 40 58t21 74h80q-8 -60 -29 -105q-22 -46 -57 -83q-34 -36 -83 -57q-46 -20 -105 -20q-51 0 -105 20q-45 17 -103 44q-81 38 -98 45q-49 20 -92 20q-38 0 -71 -14q-31 -13 -56 -38q-24 -25 -41 -59q-15 -30 -21 -74h-79 q8 60 29 105q23 48 57 84q31 33 83 56q46 21 104 21q51 0 105 -20q44 -16 103 -45q53 -26 98 -44q49 -20 92 -20z" />
<glyph unicode="&#xa1;" horiz-adv-x="459" d="M76 -360l69 563q6 47 12 87q1 5 5 36t7 47q0 2 6 37t10 53q3 18 10 55t9 49h67q-2 -20 -7 -104q-4 -62 -6 -90q-2 -31 -8 -83q-8 -68 -10 -87l-69 -563h-95zM185 941q4 38 36 67q30 27 70 27q21 0 36 -7q19 -9 28 -20q12 -16 17 -30q6 -18 3 -37q-3 -23 -12 -38 q-9 -16 -25 -30t-32 -21q-17 -7 -38 -7q-40 0 -64 28q-23 28 -19 68z" />
<glyph unicode="&#xa2;" horiz-adv-x="939" d="M793 164l23 -33q-27 -30 -66 -57q-37 -26 -87 -46q-54 -22 -101 -31q-51 -10 -112 -10h-18l-37 -214q-3 -15 -11 -23q-9 -9 -24 -9h-36l20 120l23 133q-49 9 -90 28q-78 37 -126 102q-49 67 -70 165q-20 94 -5 221q15 117 57 213q42 97 110 166q67 69 158 108 q68 29 145 36l1 2l12 68l24 142q3 12 12 23q10 10 23 10h37l-24 -134l-1 -6l-17 -103q47 -4 104 -18q79 -20 115 -31l47 -15l-31 -256h-50q-41 0 -38 49v25q0 9 2 57q1 24 5 78q-92 34 -168 34v-1l-116 -673l-38 -219q10 -1 29 -1q75 0 125 17q56 19 87 38q40 25 56 38 q20 17 32 17q13 0 19 -10zM231 180q39 -57 101 -87q25 -11 49 -18l153 879q-53 -8 -97 -27q-74 -32 -126 -89t-88 -142q-37 -87 -48 -186q-13 -107 2 -191q15 -82 54 -139z" />
<glyph unicode="&#xa3;" horiz-adv-x="1229" d="M108 680q1 14 13 26q10 10 28 10h169l37 301q12 91 49 177q36 82 96 142q59 59 144 94q83 34 188 34q79 0 135 -19q61 -21 98 -51t66 -77q26 -42 43 -93l-41 -23q-12 -5 -24 -5q-18 0 -28 17q-18 34 -36 62q-19 30 -48 54q-29 25 -71 38q-40 13 -104 13q-82 0 -143 -26 q-64 -27 -110 -75q-49 -51 -76 -114q-27 -64 -38 -148l-37 -301h490l-5 -40q-1 -12 -11 -20q-10 -9 -23 -9h-460l-38 -311q-10 -91 -56 -153q-48 -65 -114 -106q23 5 45 6q30 2 46 2h806l-5 -41q-1 -14 -16 -30q-13 -14 -35 -14h-993l8 67q43 16 72 33q37 22 65 51 q32 34 49 69q20 42 26 93l41 334h-206z" />
<glyph unicode="&#xa4;" horiz-adv-x="1102" d="M197 687q7 62 35 119q26 53 70 102l-138 158l56 51l139 -158q53 39 109 59q58 21 124 21q64 0 116 -21q56 -23 95 -57l177 157l44 -51l-176 -157q31 -46 46 -102t7 -121q-8 -64 -36 -119q-29 -57 -70 -102l138 -158l-57 -51l-139 158q-50 -37 -109 -58q-58 -21 -123 -21 q-66 0 -117 20t-94 58l-178 -158l-44 51l177 157q-34 50 -46 102q-13 57 -6 121zM271 687q-8 -57 9 -107q18 -54 48 -88q32 -36 81 -59q47 -22 105 -22t111 22q56 23 96 59q42 37 71 88q27 47 35 107q7 57 -9 108q-17 53 -49 89q-33 38 -81 60q-47 22 -105 22t-111 -22 q-54 -22 -96 -60q-40 -36 -70 -89q-27 -49 -35 -108z" />
<glyph unicode="&#xa5;" horiz-adv-x="1166" d="M95 631h354l-331 818h80q26 0 37 -26l271 -681q4 -14 10 -38q6 -26 8 -35q13 34 35 73l437 681q5 11 17 19q10 7 25 7h82l-534 -818h356l-7 -60h-375l-15 -120h375l-8 -60h-374l-48 -391h-98l48 391h-374l7 60h375l14 120h-374z" />
<glyph unicode="&#xa6;" horiz-adv-x="431" d="M287 1553h77l-98 -796h-77zM150 435h77l-98 -795h-77z" />
<glyph unicode="&#xa7;" horiz-adv-x="965" d="M874 1322q-9 -13 -24 -13q-13 0 -28 12q-19 16 -43 29t-68 28q-39 13 -103 13q-59 0 -106 -16q-49 -17 -84 -43q-37 -28 -59 -63q-23 -36 -27 -76q-6 -46 16 -82t59 -63q39 -28 89 -52q68 -32 103 -48q53 -24 103 -53q51 -29 87 -64q40 -38 58 -83q19 -48 12 -111 q-11 -86 -61 -148q-51 -63 -140 -99q50 -38 79 -89q29 -50 20 -121q-7 -65 -40 -124q-32 -58 -82 -99q-53 -44 -120 -67q-69 -24 -154 -24q-110 0 -182 34q-74 35 -128 90l28 35q5 6 13 12q5 4 18 4t30 -16q20 -19 47 -36q26 -17 75 -35q44 -16 115 -16q66 0 114 17 q52 18 89 48q38 30 60 72q23 43 29 90q6 53 -16 91q-23 40 -62 69q-44 33 -93 55q-93 42 -108 49q-49 21 -107 51q-56 29 -92 62q-41 38 -61 81q-21 44 -13 108q9 78 64 142q54 63 164 101q-54 40 -81 88q-28 50 -19 127q8 59 36 105q29 49 78 88q47 38 113 61q63 22 143 22 q93 0 162 -27t123 -81zM205 744q-5 -44 11 -75q17 -34 47 -60q34 -29 73 -50q57 -31 89 -45q62 -28 94 -43q46 -21 91 -48q79 34 115 82q38 50 45 111q6 45 -8 82q-13 35 -42 64q-31 31 -66 51q-42 24 -83 44q-58 28 -88 41q-54 23 -87 43q-95 -39 -139 -87 q-45 -49 -52 -110z" />
<glyph unicode="&#xa8;" horiz-adv-x="773" d="M310 1315q-1 -15 -11 -31q-7 -12 -22 -27q-10 -10 -29 -17t-33 -7q-15 0 -31 7q-15 7 -24 17q-10 12 -15 27q-4 15 -3 31q1 17 11 33q11 18 21 27q13 12 29 18q17 7 32 7t32 -7q14 -6 25 -18q8 -9 15 -27q5 -12 3 -33zM661 1315q-1 -15 -11 -31q-8 -12 -22 -27 q-10 -10 -29 -17t-33 -7q-15 0 -31 7q-17 7 -25 17q-10 12 -15 27q-4 15 -3 31q1 17 11 33t22 27q14 12 28 18q17 7 34 7q13 0 31 -7q14 -6 25 -18q8 -9 15 -27q5 -12 3 -33z" />
<glyph unicode="&#xa9;" horiz-adv-x="1653" d="M1072 424q13 10 24 10q3 0 9 -2q3 -1 6 -4l28 -32q-68 -60 -154 -96q-87 -36 -205 -36q-99 0 -177 33t-130 94t-74 146t-9 189q12 101 57 187q44 84 114 146q67 59 158 95q87 34 190 34q51 0 97 -8t80 -22q36 -15 66 -36q28 -20 59 -49l-29 -34q-8 -11 -22 -11 q-11 0 -25 13q-13 12 -43 30q-23 14 -73 29q-43 13 -115 13q-84 0 -158 -27q-71 -26 -128 -77q-56 -50 -92 -122q-37 -73 -47 -161q-12 -89 7 -164q18 -71 60 -121q43 -51 105 -76q64 -26 142 -26q86 0 152 21q69 22 127 64zM90 725q12 105 50 196q39 95 96 177 q54 79 134 149t164 116q90 49 185 75q94 26 200 26q105 0 193 -26q92 -27 168 -75q72 -45 135 -116q60 -67 97 -149q38 -84 53 -177q14 -91 2 -196q-12 -101 -50 -197q-35 -87 -96 -176q-54 -79 -134 -149t-164 -116q-89 -48 -186 -75q-94 -26 -200 -26q-105 0 -193 26 q-90 26 -167 75q-72 45 -135 116q-60 67 -97 149q-39 85 -53 176t-2 197zM150 725q-18 -141 20 -267q38 -125 118 -217q82 -94 198 -146q118 -53 258 -53t272 53q131 53 235 146q103 93 172 217q68 122 86 267q18 139 -21 267q-38 125 -118 217q-81 93 -199 147 q-119 54 -259 54t-271 -54t-234 -147q-104 -93 -171 -217q-68 -126 -86 -267z" />
<glyph unicode="&#xaa;" horiz-adv-x="702" d="M556 859h-33q-12 0 -16 4q-5 5 -8 16l-2 69q-30 -26 -55 -42q-26 -17 -56 -30q-32 -13 -61 -19q-37 -7 -69 -7q-33 0 -63 9q-31 9 -51 28q-22 20 -32 48q-11 29 -6 70q4 37 30 70q25 33 76 58q48 24 129 41q78 17 185 18l7 52q9 78 -21 118q-30 41 -104 41q-47 0 -76 -11 q-36 -14 -53 -24q-27 -16 -38 -25q-14 -11 -26 -11q-15 0 -21 14l-10 23q55 49 113 72t125 23q104 0 150 -60q45 -58 33 -160zM282 904q35 0 63 7q34 9 57 20q26 13 50 31q47 35 49 37l17 142q-171 -4 -254 -40q-81 -35 -89 -92q-3 -29 4 -48t23 -33q13 -11 36 -18 q21 -6 44 -6z" />
<glyph unicode="&#xab;" horiz-adv-x="770" d="M88 525l2 14l294 387l29 -16q14 -10 13 -25q-2 -13 -10 -24l-224 -300q-19 -24 -26 -30q9 -7 19 -28l150 -301q6 -11 4 -24q-1 -15 -19 -25l-33 -16zM349 525l2 14l294 387l29 -16q14 -10 13 -25q-2 -13 -10 -24l-224 -300q-19 -24 -26 -30q9 -7 19 -28l150 -301 q6 -11 4 -24q-1 -15 -19 -25l-33 -16z" />
<glyph unicode="&#xac;" horiz-adv-x="1105" d="M127 724h849l-46 -377h-84l37 302h-765z" />
<glyph unicode="&#xad;" horiz-adv-x="743" d="M141 649h476l-10 -83h-476z" />
<glyph unicode="&#xae;" horiz-adv-x="1653" d="M90 725q12 105 50 196q39 95 96 177q54 79 134 149t164 116q90 49 185 75q94 26 200 26q105 0 193 -26q92 -27 168 -75q72 -45 135 -116q60 -67 97 -149q38 -84 53 -177q14 -91 2 -196q-12 -101 -50 -197q-35 -87 -96 -176q-54 -79 -134 -149t-164 -116q-89 -48 -186 -75 q-94 -26 -200 -26q-105 0 -193 26q-90 26 -167 75q-72 45 -135 116q-60 67 -97 149q-39 85 -53 176t-2 197zM150 725q-18 -141 20 -267q38 -125 118 -217q82 -94 198 -146q118 -53 258 -53t272 53q131 53 235 146q103 93 172 217q68 122 86 267q18 139 -21 267 q-38 125 -118 217q-81 93 -199 147q-119 54 -259 54t-271 -54t-234 -147q-104 -93 -171 -217q-68 -126 -86 -267zM635 673l-49 -401h-87l111 907h253q156 0 230 -59q73 -58 58 -180q-12 -101 -86 -168q-73 -65 -196 -82q8 -5 20 -17q8 -8 16 -24l245 -377h-82q-10 0 -17 3 t-12 14l-233 359q-8 12 -19 18q-14 7 -39 7h-113zM643 738h152q123 0 191 50q66 48 78 143q12 93 -38 137q-49 43 -171 43h-166z" />
<glyph unicode="&#xaf;" horiz-adv-x="816" d="M146 1349h558l-8 -67h-558z" />
<glyph unicode="&#xb0;" horiz-adv-x="816" d="M111 1161q8 65 39 120q32 56 77 97q44 39 106 65q56 23 124 23q66 0 118 -23q54 -24 89 -65q39 -45 54 -97q17 -56 9 -120q-8 -66 -38 -119q-30 -52 -78 -96q-48 -43 -105 -66q-60 -24 -124 -24t-118 24t-90 66q-37 43 -54 96q-17 52 -9 119zM184 1161q-6 -50 7 -92 q14 -45 41 -75q30 -33 68 -50q40 -18 90 -18t95 18t80 50q36 32 59 75q24 44 30 92q6 50 -7 92t-41 76q-25 31 -68 50t-90 19q-46 0 -94 -19q-47 -19 -81 -50q-37 -34 -60 -76q-23 -41 -29 -92z" />
<glyph unicode="&#xb1;" horiz-adv-x="1176" d="M717 1181l-52 -416h442l-9 -75h-442l-50 -411h-80l50 411h-440l9 75h441l51 416h80zM71 157h961l-9 -75h-962z" />
<glyph unicode="&#xb2;" horiz-adv-x="693" d="M563 1081h23l-14 -116l-6 -43h-71h-414l3 24q3 13 5 17q5 8 13 15l271 243q31 29 60 57q34 34 52 58q19 24 37 60q13 26 18 63t-4 63q-9 27 -26 44q-16 16 -44 26q-26 9 -54 9q-62 0 -105 -37q-40 -35 -68 -93q-9 -19 -31 -19q-1 0 -3.5 0.5t-4.5 0.5q-7 0 -9 1l-30 5 q27 99 97 151q71 53 165 53q47 0 83 -13q40 -14 65 -39q27 -27 38 -62q12 -37 6 -87q-4 -37 -22 -76q-16 -34 -43 -68q-29 -38 -57 -63q-44 -40 -67 -61l-239 -215q24 6 41 8q14 2 40 2h241q1 5 5 22q1 5 2.5 10.5t1.5 6.5q1 4 1 10q7 43 44 43z" />
<glyph unicode="&#xb3;" horiz-adv-x="672" d="M406 1662q46 0 82 -13q38 -14 63 -37q25 -24 37 -58q13 -37 7 -78q-9 -68 -51 -113t-106 -64q74 -19 107 -60q35 -44 26 -111q-6 -49 -30 -88q-25 -40 -60 -68t-82 -43q-50 -16 -95 -16q-60 0 -102 16q-37 14 -64 41q-26 26 -38 61q-14 41 -19 71l32 13q6 2 8 3t9 1 q10 0 15 -4q8 -6 9 -12l2 -8q4 -17 10 -33q8 -22 23 -40t44 -33q27 -14 75 -14q41 0 75 14q32 13 57 35t38 48q14 28 17 52q4 34 -3 61q-7 24 -29 45q-21 19 -58 30q-34 10 -90 10l6 50q93 1 143 40q52 39 59 103q4 33 -4 61q-7 25 -26 42q-20 18 -43 25q-27 8 -55 8 q-64 0 -106 -33q-41 -32 -67 -93q-9 -21 -27 -21q-8 0 -23 3l-25 4q27 98 96 151q68 52 163 52z" />
<glyph unicode="&#xb4;" horiz-adv-x="559" d="M466 1465l-253 -259q-9 -11 -19 -14q-9 -3 -21 -3h-58l190 244q13 17 27 25q13 7 38 7h96z" />
<glyph unicode="&#xb5;" horiz-adv-x="1140" d="M338 1019l-80 -651q-18 -143 38 -225t189 -82q101 0 192 51q93 52 172 141l94 766h98l-125 -1019h-54q-28 0 -27 27l10 151q-83 -90 -176 -137q-94 -47 -197 -47q-100 0 -163 39t-92 113q0 -49 -4 -89q-4 -42 -9 -82l-41 -335h-49q-21 0 -31 11q-11 12 -8 32l164 1336h99 z" />
<glyph unicode="&#xb6;" horiz-adv-x="1368" d="M1323 1449l-10 -84h-231l-191 -1560h-87l191 1560h-336l-191 -1560h-88l112 911q-106 0 -186 28q-79 28 -133 79q-52 49 -75 119q-22 66 -13 147q11 83 49 148q40 68 104 114q65 47 151 72q89 26 193 26h741z" />
<glyph unicode="&#xb7;" horiz-adv-x="462" d="M130 606q3 23 13 41q9 17 26 34q14 14 35 22q23 9 40 9q18 0 40 -9q20 -8 31 -22q12 -15 18 -34q7 -22 4 -41q-3 -20 -13 -39t-27 -33q-20 -16 -36 -22q-22 -8 -42 -8q-19 0 -38 8q-17 7 -30 22q-12 14 -18 33t-3 39z" />
<glyph unicode="&#xb8;" horiz-adv-x="584" d="M137 -280q7 0 13 -5q8 -6 21 -12q21 -9 33 -13q16 -5 50 -5q53 0 84 22t36 62q3 25 -8 42q-10 15 -34 28q-22 12 -56 18q-41 7 -72 11l60 137h63l-43 -98q89 -17 133 -47t36 -91q-5 -34 -20 -56q-17 -24 -44 -41q-28 -17 -63 -26q-40 -10 -77 -10q-42 0 -81 12 q-40 12 -63 31l14 29q7 12 18 12z" />
<glyph unicode="&#xb9;" horiz-adv-x="552" d="M98 972h162l68 553l9 38l-164 -129q-10 -7 -17 -7q-10 0 -17 10l-19 31l240 189h59l-84 -685h150l-6 -50h-387z" />
<glyph unicode="&#xba;" horiz-adv-x="795" d="M449 1463q68 0 119 -21q52 -21 85 -62q32 -40 46 -97q13 -56 4 -128q-9 -70 -36 -127q-28 -59 -70 -98q-45 -42 -99 -62q-57 -21 -125 -21q-70 0 -121 21q-52 21 -85 62q-34 41 -47 98q-13 55 -4 127q9 71 36 128t70 97q45 42 100 62q57 21 127 21zM380 906q108 0 169 66 q61 65 76 183q14 117 -31 182q-46 67 -152 67q-110 0 -172 -67q-63 -67 -76 -182q-15 -116 31 -183q45 -66 155 -66z" />
<glyph unicode="&#xbb;" horiz-adv-x="771" d="M123 137l-29 16q-15 8 -14 26q1 12 10 23l224 301q7 11 14 18q4 4 12 10q-1 1 -2.5 3t-3.5 5t-3 4q-5 6 -9 18l-151 300q-6 11 -4 24q1 16 20 25l33 16l199 -387l-1 -14zM384 137l-29 16q-15 8 -14 26q1 12 10 23l225 301q7 11 14 18q4 4 12 10q-4 4 -10 12q-4 6 -9 18 l-151 300q-6 11 -4 24q1 16 20 25l33 16l199 -387l-1 -14z" />
<glyph unicode="&#xbc;" horiz-adv-x="1315" d="M1130 253h129l-5 -37q-1 -16 -19 -16h-112l-24 -200h-65l25 200h-333q-24 0 -24 16l-2 33l420 483h69zM72 768h161l68 553l9 38l-163 -129q-9 -6 -17 -6q-12 0 -18 9l-18 32l239 188h59l-84 -685h151l-6 -50h-387zM1107 596q1 8 10 53l-345 -396h293zM223 32 q-15 -20 -28 -25q-17 -7 -32 -7h-41l992 1413q11 16 27 27q13 9 34 9h43z" />
<glyph unicode="&#xbd;" horiz-adv-x="1330" d="M1192 159h22l-14 -116l-5 -43h-71h-414l3 25q2 11 5 16q5 8 13 15l270 243q42 38 61 57q30 30 51 58q19 24 37 60q14 28 19 64t-4 62t-27 44q-17 17 -43 26q-25 9 -54 9q-63 0 -105 -36t-69 -93q-9 -20 -30 -20q-1 0 -3.5 0.5t-4.5 0.5q-7 0 -9 1l-30 6q27 100 96 151 q70 52 165 52q48 0 84 -13q40 -14 64 -38q28 -28 39 -63q12 -37 6 -87q-4 -37 -22 -76q-16 -34 -43 -68q-24 -31 -58 -62q-44 -40 -67 -61l-238 -216q26 6 40 8q21 3 41 3h241q2 12 4 21q1 5 2.5 11t1.5 7q2 8 2 9q7 43 44 43zM78 768h162l68 553l8 38l-163 -129 q-9 -6 -17 -6q-11 0 -17 9l-19 32l239 188h59l-84 -685h151l-6 -50h-387zM181 32q-15 -20 -28 -25q-17 -7 -32 -7h-41l993 1413q12 17 26 27q13 9 34 9h43z" />
<glyph unicode="&#xbe;" horiz-adv-x="1384" d="M1198 253h129l-5 -37q-1 -16 -19 -16h-112l-24 -200h-65l25 200h-333q-24 0 -24 16l-2 33l420 483h69zM389 1458q47 0 83 -13q38 -14 62 -36q26 -24 38 -59q12 -34 6 -78q-9 -68 -50 -112q-42 -45 -106 -64q72 -18 106 -61q35 -44 26 -110q-6 -50 -30 -89 q-23 -38 -60 -67q-37 -30 -82 -44q-46 -15 -95 -15q-62 0 -101 15q-37 14 -64 41q-26 26 -38 61q-14 41 -19 71l32 13q6 2 8 3t9 1q10 0 15 -4q7 -5 8 -12l2 -8q4 -17 10 -33q7 -18 24 -39q17 -20 44 -34t75 -14q41 0 75 14q32 13 57 35t38 48q14 28 17 53q4 33 -3 60 q-7 26 -29 46q-19 18 -58 29q-34 10 -91 10l6 50q92 1 144 41q51 39 58 103q4 32 -4 60q-7 25 -26 42q-21 20 -43 26q-27 8 -54 8q-63 0 -106 -37t-68 -90q-9 -21 -27 -21h-3q-3 0 -6 1q-1 0 -2.5 0.5t-3 0.5t-4 0.5t-4.5 0.5t-6.5 1t-9 1.5t-8.5 1.5q27 98 96 151 q68 52 162 52zM1175 596q1 8 10 53l-345 -396h293zM299 32q-15 -20 -28 -25q-17 -7 -32 -7h-41l993 1413q12 17 26 27q13 9 34 9h43z" />
<glyph unicode="&#xbf;" horiz-adv-x="815" d="M736 -229q-40 -34 -69 -54q-36 -24 -82 -45t-94 -32q-51 -12 -108 -12q-71 0 -132 21q-60 20 -105 61q-43 38 -64 96q-21 57 -12 129q9 76 41 133q30 52 73 94q45 43 87 69l88 55q41 26 70 52q30 27 36 62l32 167h67l-16 -174v-5q-6 -45 -34 -74t-68 -57q-36 -25 -86 -54 t-87 -62q-43 -38 -71 -83q-30 -48 -39 -115q-7 -54 10 -99t49 -74t79 -46q45 -16 99 -16q70 0 121 18q53 19 87 40q34 22 56 40q21 18 30 18q8 0 14 -4q4 -2 7 -9zM483 940q3 19 12 37q8 15 24 30q16 14 32 21q17 7 38 7t36 -7q18 -8 28 -21q12 -16 17 -30q6 -18 3 -37 q-3 -23 -12 -37q-11 -18 -25 -30t-32 -20q-17 -7 -38 -7q-40 0 -64 27q-24 26 -19 67z" />
<glyph unicode="&#xc0;" d="M1432 88q40 -5 35 -41l-6 -47h-67h-42h-39h-13h-192l5 47q5 39 52 42q1 0 5.5 0.5t7.5 0.5q1 0 29 2q20 1 53 3l-101 354l-7 26h-690l-14 -26l-187 -354q34 -2 52 -3q26 -2 29 -2t7 -0.5t5 -0.5q46 -3 42 -42l-6 -47h-192h-14h-39h-41h-67l6 47q5 37 44 41l67 7l721 1354 h104l388 -1354zM875 1257l-372 -704h628l-199 706q-6 24 -9 39t-9 47q-3 -6 -9.5 -22.5t-10.5 -24.5q-6 -15 -19 -41zM785 1812q27 0 36 -4q13 -6 24 -18l207 -211h-72q-11 0 -21 2q-7 1 -17 10l-273 221h116z" />
<glyph unicode="&#xc1;" d="M1432 88q40 -5 35 -41l-6 -47h-67h-42h-39h-13h-192l5 47q5 39 52 42q1 0 5.5 0.5t7.5 0.5q1 0 29 2q20 1 53 3l-101 354l-7 26h-690l-14 -26l-187 -354q34 -2 52 -3q26 -2 29 -2t7 -0.5t5 -0.5q46 -3 42 -42l-6 -47h-192h-14h-39h-41h-67l6 47q5 37 44 41l67 7l721 1354 h104l388 -1354zM875 1257l-372 -704h628l-199 706q-6 24 -9 39t-9 47q-3 -6 -9.5 -22.5t-10.5 -24.5q-6 -15 -19 -41zM1266 1812l-326 -221q-6 -4 -20 -9q-9 -3 -21 -3h-72l258 211q17 14 29 18t38 4h114z" />
<glyph unicode="&#xc2;" d="M1432 88q40 -5 35 -41l-6 -47h-67h-42h-39h-13h-192l5 47q5 39 52 42q1 0 5.5 0.5t7.5 0.5q1 0 29 2q20 1 53 3l-101 354l-7 26h-690l-14 -26l-187 -354q34 -2 52 -3q26 -2 29 -2t7 -0.5t5 -0.5q46 -3 42 -42l-6 -47h-192h-14h-39h-41h-67l6 47q5 37 44 41l67 7l721 1354 h104l388 -1354zM875 1257l-372 -704h628l-199 706q-6 24 -9 39t-9 47q-3 -6 -9.5 -22.5t-10.5 -24.5q-6 -15 -19 -41zM1229 1579h-75q-9 0 -18 3q-12 4 -16 7l-144 126q-5 4 -10 9l-5 6q-1 0 -2.5 -2.5t-3.5 -3.5q-1 -1 -5.5 -4l-7.5 -5l-176 -126q-5 -3 -17 -7 q-9 -3 -18 -3h-76l266 204h92z" />
<glyph unicode="&#xc3;" d="M1432 88q40 -5 35 -41l-6 -47h-67h-42h-39h-13h-192l5 47q5 39 52 42q1 0 5.5 0.5t7.5 0.5q1 0 29 2q20 1 53 3l-101 354l-7 26h-690l-14 -26l-187 -354q34 -2 52 -3q26 -2 29 -2t7 -0.5t5 -0.5q46 -3 42 -42l-6 -47h-192h-14h-39h-41h-67l6 47q5 37 44 41l67 7l721 1354 h104l388 -1354zM875 1257l-372 -704h628l-199 706q-6 24 -9 39t-9 47q-3 -6 -9.5 -22.5t-10.5 -24.5q-6 -15 -19 -41zM1074 1655q44 0 69 28q26 29 32 72h56q-5 -36 -18 -66q-14 -31 -33 -53t-49 -36q-27 -13 -63 -13q-34 0 -63 17q-33 19 -55 35q-27 19 -51 35 q-26 17 -53 17q-43 0 -69 -29q-24 -27 -32 -72h-58q5 37 18 66q14 32 35 54q20 21 49 35q27 13 63 13t64 -16q26 -15 55 -36q8 -6 17 -12t19 -12.5t15 -10.5q23 -16 52 -16z" />
<glyph unicode="&#xc4;" d="M1432 88q40 -5 35 -41l-6 -47h-67h-42h-39h-13h-192l5 47q5 39 52 42q1 0 5.5 0.5t7.5 0.5q1 0 29 2q20 1 53 3l-101 354l-7 26h-690l-14 -26l-187 -354q34 -2 52 -3q26 -2 29 -2t7 -0.5t5 -0.5q46 -3 42 -42l-6 -47h-192h-14h-39h-41h-67l6 47q5 37 44 41l67 7l721 1354 h104l388 -1354zM875 1257l-372 -704h628l-199 706q-6 24 -9 39t-9 47q-3 -6 -9.5 -22.5t-10.5 -24.5q-6 -15 -19 -41zM827 1705q-1 -15 -11 -31t-21 -26q-13 -11 -29 -17q-19 -7 -33 -7t-30 7q-13 6 -24 17q-10 10 -15 26q-4 15 -3 31t11 32q9 15 21 27q11 11 29 18t32 7 q12 0 30 -7q14 -6 25 -18q8 -9 15 -27q5 -12 3 -32zM1253 1705q-2 -17 -10 -31q-10 -17 -22 -26q-14 -11 -29 -17q-17 -7 -32 -7t-31 7q-13 6 -24 17q-10 10 -15 26q-4 15 -3 31q4 33 32 59q26 25 62 25q14 0 30 -7q13 -6 24 -18t15 -27q5 -15 3 -32z" />
<glyph unicode="&#xc5;" d="M1432 88q40 -5 35 -41l-6 -47h-67h-42h-39h-13h-192l5 47q5 39 52 42q1 0 5.5 0.5t7.5 0.5q1 0 29 2q20 1 53 3l-101 354l-7 26h-690l-14 -26l-187 -354q34 -2 52 -3q26 -2 29 -2t7 -0.5t5 -0.5q46 -3 42 -42l-6 -47h-192h-14h-39h-41h-67l6 47q5 37 44 41l67 7l721 1354 h104l388 -1354zM875 1257l-372 -704h628l-199 706q-6 24 -9 39t-9 47q-3 -6 -9.5 -22.5t-10.5 -24.5q-6 -15 -19 -41zM782 1669q5 36 22 65q20 33 43 52q28 23 58 34q33 12 68 12t65 -12q28 -11 51 -34q18 -18 30 -52q11 -30 6 -65q-4 -36 -22 -65q-20 -33 -43 -52 q-25 -21 -59 -33q-33 -12 -68 -12t-65 12q-28 11 -50 33q-18 18 -30 52q-10 30 -6 65zM836 1669q-6 -50 23 -84q29 -33 81 -33q50 0 88 33q37 33 43 84q6 50 -23 84q-29 33 -80 33q-52 0 -89 -33t-43 -84z" />
<glyph unicode="&#xc6;" horiz-adv-x="2072" d="M1073 1449h978l-10 -87l-27 -213h-49q-41 0 -38 50q1 27 12 163h-733l2 -586h575l-11 -85h-563l2 -604h571l12 72q3 16 7 37t5 28q3 23 4 26q9 50 50 50h50l-26 -213l-11 -87h-738h-21h-151l5 41q4 35 45 36h16q3 0 15 1t20 1q31 0 49 1l-2 369h-610l-238 -354 q31 -1 51 -3q26 -2 29 -2t7 -0.5t5 -0.5q47 -3 42 -42l-6 -47h-192h-29h-24h-56h-52l6 47q5 37 44 41l66 7l860 1274q-28 2 -40 2q-7 0 -16.5 0.5t-12.5 0.5h-14q-41 2 -36 36l5 41h168h5zM1111 526l-4 843q-12 -26 -25 -50q-5 -8 -14 -23.5t-13 -23.5l-501 -746h557z" />
<glyph unicode="&#xc7;" horiz-adv-x="1340" d="M1174 237l35 -44q-52 -49 -109 -87q-59 -40 -124 -66q-66 -27 -143 -42q-65 -12 -156 -14l-4 -8l-29 -69q89 -17 133 -47q43 -31 36 -91q-5 -33 -21 -56q-17 -24 -44 -41q-28 -17 -63 -26q-40 -10 -77 -10q-41 0 -80 12q-38 12 -63 32l14 28q7 12 18 12q7 0 13 -5 q1 -1 21 -12q21 -9 33 -13q16 -5 49 -5q53 0 84 22q33 23 37 62q3 25 -8 42q-10 15 -34 28q-22 12 -56 18q-41 7 -72 11l51 117q-121 7 -219 51q-119 53 -197 150q-78 98 -111 234q-34 139 -13 305q19 163 89 301q69 136 174 234q105 97 243 152q134 53 295 53 q203 0 450 -104l-40 -326h-50q-41 0 -38 49q4 68 16 222q-152 69 -349 69q-133 0 -248 -45q-116 -45 -207 -130q-87 -81 -149 -205q-60 -120 -78 -270q-19 -150 10 -274q28 -119 97 -205q66 -82 168 -128q98 -44 225 -44q81 0 140 10q65 11 116 31q56 22 101 50q51 32 95 69 q2 2 6 4t5 3q4 3 11 3q11 0 17 -7z" />
<glyph unicode="&#xc8;" horiz-adv-x="1273" d="M384 1449h869l-11 -87l-26 -213h-50q-41 0 -38 50q1 27 12 163h-661l-72 -586h577l-11 -85h-576l-75 -604h661q1 8 5.5 31.5t7.5 39.5q2 11 4.5 26t4 24.5t2.5 15.5q3 23 4 26q9 50 51 50h49l-26 -213l-10 -87h-869h-172l5 41q5 35 45 36q1 0 7 0.5t12 0.5q26 0 46 1 q10 1 33 1.5t34 0.5l158 1287q-11 0 -33.5 0.5t-32.5 1.5q-20 1 -46 1q-6 0 -12 0.5t-7 0.5q-41 2 -36 36l5 41h172zM687 1812q27 0 36 -4q13 -6 24 -18l207 -211h-73q-10 0 -20 2q-7 1 -17 10l-273 221h116z" />
<glyph unicode="&#xc9;" horiz-adv-x="1273" d="M384 1449h869l-11 -87l-26 -213h-50q-41 0 -38 50q1 27 12 163h-661l-72 -586h577l-11 -85h-576l-75 -604h661q1 8 5.5 31.5t7.5 39.5q2 11 4.5 26t4 24.5t2.5 15.5q3 23 4 26q9 50 51 50h49l-26 -213l-10 -87h-869h-172l5 41q5 35 45 36q1 0 7 0.5t12 0.5q26 0 46 1 q10 1 33 1.5t34 0.5l158 1287q-11 0 -33.5 0.5t-32.5 1.5q-20 1 -46 1q-6 0 -12 0.5t-7 0.5q-41 2 -36 36l5 41h172zM1168 1812l-326 -221q-6 -4 -20 -9q-9 -3 -21 -3h-72l258 211q17 14 29 18t38 4h114z" />
<glyph unicode="&#xca;" horiz-adv-x="1273" d="M384 1449h869l-11 -87l-26 -213h-50q-41 0 -38 50q1 27 12 163h-661l-72 -586h577l-11 -85h-576l-75 -604h661q1 8 5.5 31.5t7.5 39.5q2 11 4.5 26t4 24.5t2.5 15.5q3 23 4 26q9 50 51 50h49l-26 -213l-10 -87h-869h-172l5 41q5 35 45 36q1 0 7 0.5t12 0.5q26 0 46 1 q10 1 33 1.5t34 0.5l158 1287q-11 0 -33.5 0.5t-32.5 1.5q-20 1 -46 1q-6 0 -12 0.5t-7 0.5q-41 2 -36 36l5 41h172zM1130 1579h-74q-9 0 -18 3q-12 4 -16 7l-144 126q-5 4 -10 9l-5 6q-1 0 -2.5 -2.5t-3.5 -3.5q-1 -1 -5.5 -4l-7.5 -5l-176 -126q-4 -2 -18 -7q-9 -3 -17 -3 h-76l266 204h92z" />
<glyph unicode="&#xcb;" horiz-adv-x="1273" d="M384 1449h869l-11 -87l-26 -213h-50q-41 0 -38 50q1 27 12 163h-661l-72 -586h577l-11 -85h-576l-75 -604h661q1 8 5.5 31.5t7.5 39.5q2 11 4.5 26t4 24.5t2.5 15.5q3 23 4 26q9 50 51 50h49l-26 -213l-10 -87h-869h-172l5 41q5 35 45 36q1 0 7 0.5t12 0.5q26 0 46 1 q10 1 33 1.5t34 0.5l158 1287q-11 0 -33.5 0.5t-32.5 1.5q-20 1 -46 1q-6 0 -12 0.5t-7 0.5q-41 2 -36 36l5 41h172zM729 1705q-1 -15 -11 -31q-9 -14 -22 -26t-28 -17q-19 -7 -33 -7t-30 7q-13 6 -24 17q-10 10 -15 26q-4 15 -3 31t11 32q9 15 21 27q11 11 28 18t32 7 q13 0 31 -7q14 -6 25 -18q8 -9 15 -27q5 -12 3 -32zM1155 1705q-1 -15 -11 -31q-11 -18 -21 -26q-14 -11 -29 -17q-18 -7 -32 -7q-15 0 -31 7q-13 6 -24 17q-10 10 -15 26q-4 15 -3 31q4 33 32 59q26 25 61 25q15 0 31 -7q13 -6 24 -18t15 -27q5 -15 3 -32z" />
<glyph unicode="&#xcc;" horiz-adv-x="679" d="M612 1372q-1 0 -7 -0.5t-12 -0.5q-26 0 -46 -1q-11 -1 -33 -1.5t-34 -0.5l-158 -1287q11 0 33.5 -0.5t32.5 -1.5q20 -1 46 -1q6 0 12 -0.5t7 -0.5q41 -1 36 -36l-5 -41h-172h-106h-172l5 41q5 35 45 36q1 0 7 0.5t12 0.5q26 0 46 1q10 1 33 1.5t34 0.5l158 1287 q-11 0 -33.5 0.5t-32.5 1.5q-20 1 -46 1q-6 0 -12 0.5t-7 0.5q-41 2 -36 36l5 41h172h106h172l-5 -41q-5 -34 -45 -36zM299 1812q27 0 36 -4q11 -5 23 -18l208 -211h-73q-10 0 -20 2q-7 1 -17 10l-273 221h116z" />
<glyph unicode="&#xcd;" horiz-adv-x="786" d="M612 1372q-1 0 -7 -0.5t-12 -0.5q-26 0 -46 -1q-11 -1 -33 -1.5t-34 -0.5l-158 -1287q11 0 33.5 -0.5t32.5 -1.5q20 -1 46 -1q6 0 12 -0.5t7 -0.5q41 -1 36 -36l-5 -41h-172h-106h-172l5 41q5 35 45 36q1 0 7 0.5t12 0.5q26 0 46 1q10 1 33 1.5t34 0.5l158 1287 q-11 0 -33.5 0.5t-32.5 1.5q-20 1 -46 1q-6 0 -12 0.5t-7 0.5q-41 2 -36 36l5 41h172h106h172l-5 -41q-5 -34 -45 -36zM780 1812l-326 -221q-6 -4 -20 -9q-9 -3 -22 -3h-71l258 211q17 14 29 18t37 4h115z" />
<glyph unicode="&#xce;" horiz-adv-x="748" d="M612 1372q-1 0 -7 -0.5t-12 -0.5q-26 0 -46 -1q-11 -1 -33 -1.5t-34 -0.5l-158 -1287q11 0 33.5 -0.5t32.5 -1.5q20 -1 46 -1q6 0 12 -0.5t7 -0.5q41 -1 36 -36l-5 -41h-172h-106h-172l5 41q5 35 45 36q1 0 7 0.5t12 0.5q26 0 46 1q10 1 33 1.5t34 0.5l158 1287 q-11 0 -33.5 0.5t-32.5 1.5q-20 1 -46 1q-6 0 -12 0.5t-7 0.5q-41 2 -36 36l5 41h172h106h172l-5 -41q-5 -34 -45 -36zM742 1579h-75q-8 0 -17 3q-12 4 -16 7l-144 126q-10 8 -11 9l-4 6q-1 0 -2.5 -2.5t-3.5 -3.5q-1 -1 -5.5 -4l-7.5 -5l-176 -126q-4 -2 -18 -7 q-9 -3 -17 -3h-76l265 204h93z" />
<glyph unicode="&#xcf;" horiz-adv-x="773" d="M612 1372q-1 0 -7 -0.5t-12 -0.5q-26 0 -46 -1q-11 -1 -33 -1.5t-34 -0.5l-158 -1287q11 0 33.5 -0.5t32.5 -1.5q20 -1 46 -1q6 0 12 -0.5t7 -0.5q41 -1 36 -36l-5 -41h-172h-106h-172l5 41q5 35 45 36q1 0 7 0.5t12 0.5q26 0 46 1q10 1 33 1.5t34 0.5l158 1287 q-11 0 -33.5 0.5t-32.5 1.5q-20 1 -46 1q-6 0 -12 0.5t-7 0.5q-41 2 -36 36l5 41h172h106h172l-5 -41q-5 -34 -45 -36zM341 1705q-1 -15 -11 -31q-9 -14 -22 -26t-28 -17q-19 -7 -33 -7t-30 7q-13 6 -24 17q-10 10 -15 26q-4 15 -3 31t11 32q9 15 21 27q11 11 28 18t32 7 q13 0 31 -7q14 -6 25 -18q8 -9 15 -27q5 -12 3 -32zM767 1705q-1 -15 -11 -31q-11 -18 -21 -26q-14 -11 -29 -17q-17 -7 -32 -7t-31 7q-13 6 -24 17q-10 10 -15 26q-4 15 -3 31q4 33 32 59q26 25 61 25q15 0 31 -7q13 -6 24 -18t15 -27q5 -15 3 -32z" />
<glyph unicode="&#xd0;" horiz-adv-x="1562" d="M1476 1026q34 -137 13 -301q-21 -169 -87 -302q-65 -132 -169 -228q-103 -96 -236 -145q-135 -50 -288 -50h-503h-172q2 15 5 41q4 34 45 36q5 0 19 0.5t45.5 1.5t67.5 2l76 620h-221l8 66h221l74 601q-35 1 -66.5 2t-45.5 1.5t-19 0.5q-40 2 -36 36l5 41h172h503 q153 0 276 -50q119 -48 200 -145q80 -95 113 -228zM1306 454q57 119 75 271q18 151 -9 270t-93 201q-64 80 -169 125q-101 43 -233 43h-398l-73 -597h414l-8 -66h-414l-76 -616h398q133 0 244 43q113 44 199 125q85 81 143 201z" />
<glyph unicode="&#xd1;" horiz-adv-x="1692" d="M1502 1449h173l-5 -41q-4 -34 -45 -36q-1 0 -7.5 -0.5t-12.5 -0.5q-25 0 -45 -1q-10 -1 -33.5 -1.5t-34.5 -0.5l-168 -1368h-50q-23 0 -35 21l-788 1257q0 -22 -4 -58l-140 -1139q12 0 34.5 -0.5t33.5 -1.5q21 -1 48 -1q7 0 13 -0.5t7 -0.5q41 -1 36 -36l-5 -41h-177h-91 h-172l5 41q5 35 45 36q1 0 7 0.5t12 0.5q26 0 46 1q10 1 33 1.5t34 0.5l158 1287q-11 0 -33.5 0.5t-32.5 1.5q-20 1 -46 1q-6 0 -12 0.5t-7 0.5q-41 2 -36 36l5 41h172h51q12 0 22 -4q8 -3 16 -16l784 -1255q0 21 4 59l139 1135q-12 0 -34.5 0.5t-33.5 1.5q-21 1 -47 1 q-7 0 -14 1h-7q-40 2 -36 36l5 41h177h92zM1128 1655q44 0 69 28q27 30 33 72h55q-5 -39 -17 -66q-14 -31 -33 -53t-49 -36q-27 -13 -64 -13q-33 0 -62 17q-33 19 -55 35q-18 13 -52 35q-26 17 -53 17q-42 0 -68 -29q-26 -28 -33 -72h-57q5 40 17 66q14 32 35 54 q19 20 50 35q27 13 63 13q35 0 63 -16q26 -15 55 -36q8 -6 17 -12t19 -12.5t15 -10.5q23 -16 52 -16z" />
<glyph unicode="&#xd2;" horiz-adv-x="1530" d="M1458 725q-21 -170 -88 -305q-67 -136 -170 -233q-104 -98 -236 -150t-288 -52q-154 0 -273 52q-121 53 -200 150q-78 96 -113 233q-35 138 -14 305q21 169 88 304t171 233t236 150q135 53 286 53q157 0 276 -52t199 -150t113 -234q34 -140 13 -304zM1349 725 q18 154 -8 272q-27 121 -93 205t-168 129q-100 44 -234 44q-131 0 -241 -44q-113 -45 -200 -129q-89 -86 -145 -205q-58 -125 -76 -272q-18 -153 9 -273q27 -119 95 -204q69 -86 168 -128q103 -44 231 -44q130 0 244 44q111 43 199 128q87 84 144 204t75 273zM717 1812 q27 0 36 -4q13 -6 24 -18l207 -211h-73q-10 0 -20 2q-7 1 -17 10l-273 221h116z" />
<glyph unicode="&#xd3;" horiz-adv-x="1530" d="M1458 725q-21 -170 -88 -305q-67 -136 -170 -233q-104 -98 -236 -150t-288 -52q-154 0 -273 52q-121 53 -200 150q-78 96 -113 233q-35 138 -14 305q21 169 88 304t171 233t236 150q135 53 286 53q157 0 276 -52t199 -150t113 -234q34 -140 13 -304zM1349 725 q18 154 -8 272q-27 121 -93 205t-168 129q-100 44 -234 44q-131 0 -241 -44q-113 -45 -200 -129q-89 -86 -145 -205q-58 -125 -76 -272q-18 -153 9 -273q27 -119 95 -204q69 -86 168 -128q103 -44 231 -44q130 0 244 44q111 43 199 128q87 84 144 204t75 273zM1198 1812 l-326 -221q-6 -4 -20 -9q-9 -3 -22 -3h-71l258 211q17 14 29 18t37 4h115z" />
<glyph unicode="&#xd4;" horiz-adv-x="1530" d="M1458 725q-21 -170 -88 -305q-67 -136 -170 -233q-104 -98 -236 -150t-288 -52q-154 0 -273 52q-121 53 -200 150q-78 96 -113 233q-35 138 -14 305q21 169 88 304t171 233t236 150q135 53 286 53q157 0 276 -52t199 -150t113 -234q34 -140 13 -304zM1349 725 q18 154 -8 272q-27 121 -93 205t-168 129q-100 44 -234 44q-131 0 -241 -44q-113 -45 -200 -129q-89 -86 -145 -205q-58 -125 -76 -272q-18 -153 9 -273q27 -119 95 -204q69 -86 168 -128q103 -44 231 -44q130 0 244 44q111 43 199 128q87 84 144 204t75 273zM1160 1579h-75 q-8 0 -17 3q-12 4 -16 7l-144 126q-10 8 -11 9l-4 6q-1 0 -2.5 -2.5t-3.5 -3.5q-1 -1 -5.5 -4l-7.5 -5l-176 -126q-4 -2 -18 -7q-9 -3 -17 -3h-76l265 204h93z" />
<glyph unicode="&#xd5;" horiz-adv-x="1530" d="M1458 725q-21 -170 -88 -305q-67 -136 -170 -233q-104 -98 -236 -150t-288 -52q-154 0 -273 52q-121 53 -200 150q-78 96 -113 233q-35 138 -14 305q21 169 88 304t171 233t236 150q135 53 286 53q157 0 276 -52t199 -150t113 -234q34 -140 13 -304zM1349 725 q18 154 -8 272q-27 121 -93 205t-168 129q-100 44 -234 44q-131 0 -241 -44q-113 -45 -200 -129q-89 -86 -145 -205q-58 -125 -76 -272q-18 -153 9 -273q27 -119 95 -204q69 -86 168 -128q103 -44 231 -44q130 0 244 44q111 43 199 128q87 84 144 204t75 273zM1006 1655 q44 0 69 28q26 29 32 72h55q-5 -39 -17 -66q-14 -31 -33 -53t-49 -36q-27 -13 -64 -13q-33 0 -62 17q-33 19 -55 35q-18 13 -52 35q-26 17 -52 17q-43 0 -69 -29q-25 -28 -33 -72h-57q5 37 18 66q15 34 34 54t50 35q27 13 63 13q35 0 63 -16q26 -15 55 -36q8 -6 17 -12 t19 -12.5t15 -10.5q23 -16 53 -16z" />
<glyph unicode="&#xd6;" horiz-adv-x="1530" d="M1458 725q-21 -170 -88 -305q-67 -136 -170 -233q-104 -98 -236 -150t-288 -52q-154 0 -273 52q-121 53 -200 150q-78 96 -113 233q-35 138 -14 305q21 169 88 304t171 233t236 150q135 53 286 53q157 0 276 -52t199 -150t113 -234q34 -140 13 -304zM1349 725 q18 154 -8 272q-27 121 -93 205t-168 129q-100 44 -234 44q-131 0 -241 -44q-113 -45 -200 -129q-89 -86 -145 -205q-58 -125 -76 -272q-18 -153 9 -273q27 -119 95 -204q69 -86 168 -128q103 -44 231 -44q130 0 244 44q111 43 199 128q87 84 144 204t75 273zM759 1705 q-1 -15 -11 -31q-9 -14 -22 -26t-28 -17q-19 -7 -33 -7t-30 7q-13 6 -24 17q-10 10 -15 26q-4 15 -3 31t11 32q9 15 21 27q11 11 28 18t32 7q13 0 31 -7q14 -6 25 -18q8 -9 15 -27q5 -12 3 -32zM1185 1705q-1 -15 -11 -31q-11 -18 -21 -26q-14 -11 -29 -17q-18 -7 -32 -7 q-15 0 -31 7q-13 6 -24 17q-10 10 -15 26q-4 15 -3 31q4 33 32 59q26 25 61 25q15 0 31 -7q13 -6 24 -18t15 -27q5 -15 3 -32z" />
<glyph unicode="&#xd7;" horiz-adv-x="996" d="M976 1061l-422 -375l334 -381l-59 -53l-335 381l-430 -383l-47 53l429 383l-330 377l61 55l330 -378l421 376z" />
<glyph unicode="&#xd8;" horiz-adv-x="1563" d="M1476 725q-22 -173 -87 -305q-67 -136 -170 -233t-237 -150q-132 -52 -288 -52q-119 0 -215 31q-100 32 -174 89l-157 -180q-15 -18 -32 -25q-19 -8 -35 -8h-45l221 255q-98 98 -142 245q-43 143 -20 333q21 169 88 304t171 233t236 150q135 53 286 53q125 0 226 -34 q105 -35 180 -99l132 153q15 17 24 23q11 8 31 8h56l-197 -228q93 -100 131 -240q39 -144 17 -323zM203 725q-20 -167 12 -289q33 -125 110 -210l890 1029q-69 61 -154 90q-89 30 -196 30q-131 0 -241 -44q-115 -46 -201 -129q-87 -84 -144 -205q-58 -125 -76 -272z M1368 725q19 153 -10 277q-28 120 -99 206l-889 -1026q63 -51 149 -79q84 -27 187 -27q130 0 244 44q111 43 199 128q85 82 143 204q58 123 76 273z" />
<glyph unicode="&#xd9;" horiz-adv-x="1543" d="M1353 1449h173l-5 -41q-5 -34 -45 -36q-1 0 -7.5 -0.5t-12.5 -0.5q-25 0 -45 -1q-10 -1 -33.5 -1.5t-34.5 -0.5l-100 -815q-15 -123 -65 -224q-51 -104 -131 -181q-81 -78 -188 -121q-109 -44 -234 -44q-127 0 -224 44t-158 121q-62 78 -87 181q-25 102 -10 224l100 815 q-11 0 -34 0.5t-33 1.5q-20 1 -45 1q-6 0 -12.5 0.5t-7.5 0.5q-40 2 -36 36l5 41h173h105h199l-6 -41q-4 -34 -45 -36h-9q-8 -1 -17 -1q-33 0 -58 -1q-13 0 -37 -1t-37 -1l-100 -814q-12 -103 7 -189q20 -88 69 -152q49 -63 127 -101q77 -37 182 -37q104 0 191 36 q84 35 152 101q66 65 107 152q41 88 53 189l100 815q-12 0 -36.5 1t-36.5 1q-24 1 -58 1q-8 0 -17 1h-9q-40 2 -36 36l5 41h198h104zM664 1812q27 0 36 -4q13 -6 24 -18l207 -211h-73q-10 0 -20 2q-7 1 -17 10l-273 221h116z" />
<glyph unicode="&#xda;" horiz-adv-x="1544" d="M1354 1449h173l-5 -41q-4 -34 -45 -36q-1 0 -7.5 -0.5t-12.5 -0.5q-25 0 -45 -1q-10 -1 -33.5 -1.5t-34.5 -0.5l-100 -815q-15 -123 -65 -224q-51 -104 -131 -181q-81 -78 -188 -121q-109 -44 -234 -44q-127 0 -224 44t-158 121q-62 78 -87 181q-25 102 -10 224l100 815 q-11 0 -34 0.5t-33 1.5q-20 1 -45 1q-6 0 -12.5 0.5t-7.5 0.5q-41 2 -36 36l5 41h173h105h199l-5 -41q-4 -34 -46 -36h-8q-8 -1 -17 -1q-34 0 -59 -1q-12 0 -37 -1t-37 -1l-100 -814q-12 -103 7 -189q20 -88 69 -152q49 -63 127 -101q77 -37 182 -37q104 0 191 36 q84 35 152 101q66 65 107 152q41 88 53 189l100 815q-12 0 -36.5 1t-36.5 1q-24 1 -58 1q-8 0 -17 1h-9q-41 2 -36 36l5 41h198h104zM1146 1812l-326 -221q-6 -4 -20 -9q-9 -3 -21 -3h-72l258 211q17 14 29 18t38 4h114z" />
<glyph unicode="&#xdb;" horiz-adv-x="1543" d="M1353 1449h173l-5 -41q-5 -34 -45 -36q-1 0 -7.5 -0.5t-12.5 -0.5q-25 0 -45 -1q-10 -1 -33.5 -1.5t-34.5 -0.5l-100 -815q-15 -123 -65 -224q-51 -104 -131 -181q-81 -78 -188 -121q-109 -44 -234 -44q-127 0 -224 44t-158 121q-62 78 -87 181q-25 102 -10 224l100 815 q-11 0 -34 0.5t-33 1.5q-20 1 -45 1q-6 0 -12.5 0.5t-7.5 0.5q-40 2 -36 36l5 41h173h105h199l-6 -41q-4 -34 -45 -36h-9q-8 -1 -17 -1q-33 0 -58 -1q-13 0 -37 -1t-37 -1l-100 -814q-12 -103 7 -189q20 -88 69 -152q49 -63 127 -101q77 -37 182 -37q104 0 191 36 q84 35 152 101q66 65 107 152q41 88 53 189l100 815q-12 0 -36.5 1t-36.5 1q-24 1 -58 1q-8 0 -17 1h-9q-40 2 -36 36l5 41h198h104zM1107 1579h-74q-9 0 -18 3q-12 4 -16 7l-144 126q-5 4 -10 9l-5 6q-1 0 -2.5 -2.5t-3.5 -3.5q-1 -1 -5.5 -4l-7.5 -5l-176 -126 q-4 -2 -18 -7q-9 -3 -17 -3h-76l266 204h92z" />
<glyph unicode="&#xdc;" horiz-adv-x="1543" d="M1353 1449h173l-5 -41q-5 -34 -45 -36q-1 0 -7.5 -0.5t-12.5 -0.5q-25 0 -45 -1q-10 -1 -33.5 -1.5t-34.5 -0.5l-100 -815q-15 -123 -65 -224q-51 -104 -131 -181q-81 -78 -188 -121q-109 -44 -234 -44q-127 0 -224 44t-158 121q-62 78 -87 181q-25 102 -10 224l100 815 q-11 0 -34 0.5t-33 1.5q-20 1 -45 1q-6 0 -12.5 0.5t-7.5 0.5q-40 2 -36 36l5 41h173h105h199l-6 -41q-4 -34 -45 -36h-9q-8 -1 -17 -1q-33 0 -58 -1q-13 0 -37 -1t-37 -1l-100 -814q-12 -103 7 -189q20 -88 69 -152q49 -63 127 -101q77 -37 182 -37q104 0 191 36 q84 35 152 101q66 65 107 152q41 88 53 189l100 815q-12 0 -36.5 1t-36.5 1q-24 1 -58 1q-8 0 -17 1h-9q-40 2 -36 36l5 41h198h104zM706 1705q-1 -15 -11 -31q-9 -14 -22 -26t-28 -17q-19 -7 -33 -7t-30 7q-13 6 -24 17q-10 10 -15 26q-4 15 -3 31t11 32q9 15 21 27 q11 11 28 18q18 7 32 7t31 -7q14 -6 25 -18q8 -9 15 -27q5 -12 3 -32zM1132 1705q-1 -15 -11 -31q-11 -18 -21 -26q-14 -11 -29 -17q-17 -7 -32 -7t-31 7q-13 6 -24 17q-10 10 -15 26q-4 15 -3 31q4 33 32 59q26 25 61 25q15 0 31 -7q14 -6 24 -18t15 -27t3 -32z" />
<glyph unicode="&#xdd;" horiz-adv-x="1392" d="M1308 1449h65l-5 -41q-4 -34 -45 -36q-19 -1 -44 -2.5t-32 -1.5l-579 -770l-64 -517q11 0 34 -0.5t33 -1.5q20 -1 45 -1q6 0 12 -0.5t7 -0.5q41 -1 36 -36l-5 -41h-172h-105h-173l5 41q5 35 45 36q1 0 7.5 0.5t12.5 0.5q25 0 45 1q10 1 33.5 1.5t34.5 0.5l63 517 l-390 770q-7 0 -32.5 1.5l-42.5 2.5q-41 2 -36 36l5 41h65h11h80h16h206l-5 -41q-5 -34 -45 -36q-1 0 -6.5 -0.5t-9.5 -0.5q-19 0 -36 -1q-9 -1 -27 -1.5t-28 -0.5l305 -610q11 -22 19 -46q6 -19 13 -44q8 18 24 44q11 19 30 46l454 610q-9 0 -28 0.5t-27 1.5q-16 1 -36 1 q-4 0 -9 0.5t-6 0.5q-40 2 -36 36l5 41h205h15h82h11zM1060 1812l-326 -221q-6 -4 -20 -9q-9 -3 -21 -3h-72l258 211q17 14 29 18t38 4h114z" />
<glyph unicode="&#xde;" horiz-adv-x="1102" d="M202 293l-36 -293h-105l178 1449h105l-36 -291h269q255 0 371 -111q117 -112 91 -319q-12 -96 -57 -175t-119 -138q-70 -56 -173 -90q-96 -32 -219 -32h-269zM212 377h269q99 0 176 26t137 74q59 47 95 111q36 65 45 140q21 167 -71 257q-90 89 -296 89h-269z" />
<glyph unicode="&#xdf;" horiz-adv-x="1072" d="M693 1467q86 0 152 -26q65 -26 105 -67t58 -93q17 -49 11 -102q-8 -66 -37 -111q-30 -47 -71 -83q-41 -37 -86 -65q-50 -32 -86 -57q-40 -28 -67 -58q-29 -32 -33 -68q-4 -35 10 -62q13 -25 39 -43q27 -19 60 -34q11 -5 33.5 -16t34.5 -16q33 -15 69 -38q31 -20 57 -52 q24 -29 36 -73q12 -41 4 -103q-9 -72 -41 -128q-32 -58 -84 -100q-52 -43 -119 -65q-69 -23 -146 -23q-105 0 -174 34q-70 34 -124 90l27 34q8 10 13 13q7 4 18 4q14 0 31 -17q13 -13 45 -35q25 -17 72 -35q45 -17 108 -17q60 0 110 18t85 49q35 30 58 74q22 41 28 90 q9 67 -17 110q-25 42 -66 68q-39 25 -92 46q-56 22 -92 44q-42 25 -67 64t-18 103q6 49 35 87q28 37 71 69q40 30 88 61q47 30 88 64q37 30 71 78q29 41 37 100q4 28 -6 69q-8 35 -38 69q-29 33 -78 54q-52 22 -124 22q-74 0 -139 -22q-69 -23 -121 -67q-54 -45 -90 -116 t-48 -166l-125 -1023h-98l126 1025q12 100 57 186q43 82 111 139t154 87q87 30 185 30z" />
<glyph unicode="&#xe0;" horiz-adv-x="1018" d="M875 77q41 -1 36 -36l-5 -41h-135h-24h-23q-20 0 -27 9q-8 10 -8 23l34 320q-36 -77 -86 -149q-46 -66 -99 -115q-50 -46 -111 -74q-59 -27 -121 -27q-65 0 -112 25q-49 26 -81 71q-31 44 -48 112t-17 147q0 88 23 175t64 162q44 79 98 141q58 65 127 112q71 48 148 74 t163 26q63 0 114 -10q53 -11 106 -38l-110 -904q32 -2 46 -2q8 0 19 -0.5t14 -0.5h15zM658 338q45 84 81 186l52 415q-60 21 -132 21q-67 0 -133 -23q-61 -21 -121 -64q-53 -38 -104 -98q-51 -61 -83 -123q-35 -68 -54 -142q-19 -73 -19 -152q0 -137 47 -214q46 -76 146 -76 q58 0 115 33q59 34 108 92q52 61 97 145zM489 1465q25 0 36 -7q12 -8 21 -25l130 -244h-55q-11 0 -20 3q-8 3 -16 14l-190 259h94z" />
<glyph unicode="&#xe1;" horiz-adv-x="1018" d="M875 77q41 -1 36 -36l-5 -41h-135h-24h-23q-20 0 -27 9q-8 10 -8 23l34 320q-36 -77 -86 -149q-46 -66 -99 -115q-50 -46 -111 -74q-59 -27 -121 -27q-65 0 -112 25q-49 26 -81 71q-31 44 -48 112t-17 147q0 88 23 175t64 162q44 79 98 141q58 65 127 112q71 48 148 74 t163 26q63 0 114 -10q53 -11 106 -38l-110 -904q32 -2 46 -2q8 0 19 -0.5t14 -0.5h15zM658 338q45 84 81 186l52 415q-60 21 -132 21q-67 0 -133 -23q-61 -21 -121 -64q-53 -38 -104 -98q-51 -61 -83 -123q-35 -68 -54 -142q-19 -73 -19 -152q0 -137 47 -214q46 -76 146 -76 q58 0 115 33q59 34 108 92q52 61 97 145zM837 1465l-253 -259q-10 -11 -18 -14q-9 -3 -22 -3h-58l191 244q14 18 26 25q13 7 38 7h96z" />
<glyph unicode="&#xe2;" horiz-adv-x="1017" d="M875 77q41 -1 36 -36l-5 -41h-135h-24h-23q-20 0 -27 9q-8 10 -8 23l34 320q-36 -77 -86 -149q-46 -66 -99 -115q-50 -46 -111 -74q-59 -27 -121 -27q-65 0 -112 25q-49 26 -81 71q-31 44 -48 112t-17 147q0 88 23 175t64 162q44 79 98 141q58 65 127 112q71 48 148 74 t163 26q63 0 114 -10q53 -11 106 -38l-110 -904q32 -2 46 -2q8 0 19 -0.5t14 -0.5h15zM658 338q45 84 81 186l52 415q-60 21 -132 21q-67 0 -133 -23q-61 -21 -121 -64q-53 -38 -104 -98q-51 -61 -83 -123q-35 -68 -54 -142q-19 -73 -19 -152q0 -137 47 -214q46 -76 146 -76 q58 0 115 33q59 34 108 92q52 61 97 145zM840 1197h-66q-16 0 -26 12l-140 167q-5 4 -10 12q-2 -3 -6 -7l-5 -5l-181 -167q-7 -5 -14 -8q-10 -4 -16 -4h-68l254 252h87z" />
<glyph unicode="&#xe3;" horiz-adv-x="1022" d="M876 77q40 -1 36 -36l-5 -41h-135h-24h-23q-19 0 -27 9q-8 10 -8 23l34 320q-36 -77 -86 -149q-46 -66 -99 -115q-50 -46 -111 -74q-58 -27 -121 -27q-65 0 -112 25q-49 26 -81 71q-31 44 -48 112t-17 147q0 88 23 175t64 162q44 79 98 141q58 65 127 112q71 48 148 74 t163 26q63 0 114 -10q53 -11 106 -38l-110 -904q32 -2 46 -2q8 0 19 -0.5t14 -0.5h15zM659 338q45 84 81 186l52 415q-60 21 -132 21q-67 0 -133 -23q-61 -21 -121 -64q-53 -38 -104 -98q-51 -61 -83 -123q-35 -68 -54 -142q-19 -73 -19 -152q0 -137 47 -214q46 -76 146 -76 q58 0 115 33q59 34 108 92q52 61 97 145zM708 1311q45 0 70 28q26 29 33 76h60q-4 -35 -18 -69q-13 -31 -36 -56q-23 -24 -51 -37q-29 -13 -64 -13q-33 0 -62 17q-19 11 -53 37q-43 33 -49 37q-25 17 -51 17q-42 0 -69 -30t-34 -75h-62q4 35 18 69q12 29 37 56q22 24 52 37 q29 13 64 13q34 0 63 -17q22 -13 52 -37q18 -15 49 -36q25 -17 51 -17z" />
<glyph unicode="&#xe4;" horiz-adv-x="1020" d="M876 77q40 -1 36 -36l-5 -41h-135h-24h-23q-19 0 -27 9q-8 10 -8 23l34 320q-36 -77 -86 -149q-46 -66 -99 -115q-50 -46 -111 -74q-58 -27 -121 -27q-65 0 -112 25q-49 26 -81 71q-31 44 -48 112t-17 147q0 88 23 175t64 162q44 79 98 141q58 65 127 112q71 48 148 74 t163 26q63 0 114 -10q53 -11 106 -38l-110 -904q32 -2 46 -2q8 0 19 -0.5t14 -0.5h15zM659 338q45 84 81 186l52 415q-60 21 -132 21q-67 0 -133 -23q-61 -21 -121 -64q-53 -38 -104 -98q-51 -61 -83 -123q-35 -68 -54 -142q-19 -73 -19 -152q0 -137 47 -214q46 -76 146 -76 q58 0 115 33q59 34 108 92q52 61 97 145zM500 1315q-1 -15 -11 -31q-9 -15 -21 -27q-10 -10 -30 -17q-19 -7 -33 -7t-30 7q-17 7 -25 17q-10 12 -15 27q-4 15 -3 31q1 17 11 33t22 27q13 12 29 18q17 7 32 7q14 0 31 -7q14 -6 25 -18q8 -9 15 -27q5 -12 3 -33zM852 1315 q-1 -15 -11 -31q-7 -12 -22 -27q-10 -10 -29 -17t-33 -7q-16 0 -32 7q-15 7 -24 17q-12 14 -16 27q-4 12 -2 31t10 33q10 16 22 27q13 12 29 18q17 7 33 7q15 0 32 -7q13 -5 24 -18q8 -9 15 -27q6 -14 4 -33z" />
<glyph unicode="&#xe5;" horiz-adv-x="1016" d="M874 77q40 -1 36 -36l-5 -41h-135h-24h-23q-19 0 -27 9q-8 10 -8 23l34 320q-36 -77 -86 -149q-46 -66 -99 -115q-50 -46 -111 -74q-58 -27 -121 -27q-65 0 -112 25q-49 26 -81 71q-32 46 -49 112q-16 64 -16 147q0 88 23 175t64 162q44 79 98 141q58 65 127 112 q71 48 148 74t163 26q63 0 114 -10q53 -11 106 -38l-110 -904q32 -2 46 -2q8 0 19 -0.5t14 -0.5h15zM657 338q45 84 81 186l51 415q-60 21 -131 21q-67 0 -133 -23q-61 -21 -121 -64q-53 -38 -104 -98q-51 -61 -83 -123q-35 -68 -54 -142q-19 -73 -19 -152q0 -137 47 -214 q46 -76 146 -76q58 0 115 33q59 34 108 92q52 61 97 145zM412 1333q5 39 22 68q20 33 44 53q23 19 61 34q33 13 69 13q38 0 67 -13q35 -16 52 -34q22 -23 32 -53q11 -30 6 -68q-4 -36 -23 -67t-45 -53q-27 -23 -60 -34q-37 -13 -70 -13t-66 13q-32 13 -52 34q-22 23 -32 53 q-10 28 -5 67zM471 1333q-6 -52 22 -84t81 -32q52 0 88 32q37 33 43 84q6 52 -22 84q-29 33 -80 33t-89 -33q-37 -33 -43 -84z" />
<glyph unicode="&#xe6;" horiz-adv-x="1469" d="M1129 1050q55 0 104 -17q50 -17 83 -46q34 -30 54 -72q20 -43 20 -91q0 -59 -32 -112q-31 -52 -106 -94q-72 -40 -195 -64q-124 -25 -301 -26q-3 -42 -3 -84q0 -175 71 -270t195 -95q55 0 98 12t78 30q37 19 61 39q38 32 47 39q5 4 12.5 10.5t13 11t9.5 8.5q15 12 26 12 q12 0 21 -11l23 -26q-47 -50 -96 -91q-40 -34 -97 -63q-49 -25 -101 -37t-113 -12q-118 0 -199 72q-80 71 -110 209q-29 -80 -75 -134q-46 -53 -101 -87q-54 -33 -111 -48t-106 -15q-55 0 -105 14q-47 13 -82 42q-33 27 -53 73q-19 44 -19 106q0 77 36 141q36 65 112 111 q78 47 198 74q124 28 291 32l11 87q1 8 2.5 20.5t1.5 17.5q1 12 1 36q0 105 -47 163q-46 57 -140 57q-68 0 -117 -21q-55 -23 -86 -44q-32 -21 -59 -45q-23 -20 -38 -20q-22 0 -29 18l-12 29q85 82 166 121q85 41 185 41q116 0 176 -62q59 -60 71 -171q59 109 151 170 q94 62 215 62zM669 527q-135 -4 -243 -25q-103 -20 -166 -55q-66 -37 -97 -86t-31 -114q0 -48 13 -81q13 -32 38 -56q24 -22 59 -33q33 -10 73 -10q62 0 120 23q57 22 102 66q46 45 76 107q31 64 41 146zM1119 977q-70 0 -132 -28q-60 -27 -105 -78q-47 -53 -76 -123 t-43 -160q148 4 258 25q97 18 166 51q63 30 90 70q27 41 27 86q0 72 -51 115q-50 42 -134 42z" />
<glyph unicode="&#xe7;" horiz-adv-x="916" d="M778 164l23 -33q-25 -28 -67 -57q-39 -27 -86 -46q-53 -21 -102 -31q-39 -8 -89 -10l-34 -80q89 -17 133 -47q43 -31 36 -91q-5 -34 -20 -56q-17 -24 -44 -41q-28 -17 -63 -26q-40 -10 -77 -10q-42 0 -81 12q-38 12 -62 31l13 29q8 12 18 12q7 0 13 -5q1 -1 21 -12 q21 -9 33 -13q16 -5 50 -5q53 0 84 22q33 23 37 62q3 25 -8 42q-9 14 -35 28q-27 13 -56 18q-42 8 -71 11l52 120q-76 6 -135 34q-77 36 -125 102q-49 67 -70 165q-20 94 -5 221q15 117 57 213q42 97 110 166t157 108q88 38 201 38q38 0 105 -16q85 -20 121 -32l52 -16 l-32 -257h-50q-41 0 -38 50v8q1 9 1 17q0 9 2 57q2 55 4 78q-92 34 -169 34q-89 0 -160 -31q-74 -32 -126 -89t-88 -142q-37 -87 -48 -186q-13 -107 2 -191q15 -82 54 -139t101 -87q59 -29 142 -29q75 0 125 17q56 19 87 38q40 25 56 38q20 17 32 17q13 0 19 -10z" />
<glyph unicode="&#xe8;" horiz-adv-x="888" d="M836 824q0 -42 -12 -80q-12 -37 -40 -71q-29 -35 -77 -64q-51 -31 -126 -56t-184 -45q-113 -21 -250 -35l-3 -42q-1 -14 -1 -42q0 -153 69 -238q70 -87 209 -87q54 0 98 12q41 11 77 30q37 19 61 39q13 10 46 39q4 3 17 14.5t19 16.5q14 11 27 11q12 0 21 -10l23 -27 q-46 -49 -98 -91q-48 -39 -96 -63q-51 -26 -101 -37q-48 -11 -112 -11q-86 0 -151 28t-111 80q-43 49 -68 126q-24 74 -24 166q0 72 16 155q15 76 45 149q29 70 75 134q44 62 102 109q55 45 127 73q66 26 150 26q76 0 127 -21q52 -21 84 -52q29 -28 46 -68q15 -36 15 -68z M559 962q-81 0 -148 -35q-66 -35 -117 -93t-85 -134q-33 -73 -50 -159q145 17 224 33q98 20 160 40q65 21 106 45q38 22 63 51q22 25 30 54t8 57q0 19 -10 47q-8 23 -32 45q-23 22 -59 35q-37 14 -90 14zM456 1465q25 0 36 -7t20 -25l131 -244h-55q-12 0 -21 3q-7 2 -15 14 l-190 259h94z" />
<glyph unicode="&#xe9;" horiz-adv-x="889" d="M836 824q0 -42 -12 -80q-12 -37 -40 -71q-29 -35 -77 -64q-51 -31 -126 -56t-184 -45q-113 -21 -250 -35l-3 -42q-1 -14 -1 -42q0 -153 69 -238q70 -87 209 -87q54 0 98 12q41 11 77 30q37 19 61 39q13 10 46 39q4 3 17 14.5t19 16.5q14 11 27 11q12 0 21 -10l23 -27 q-46 -49 -98 -91q-48 -39 -96 -63q-51 -26 -101 -37q-48 -11 -112 -11q-86 0 -151 28t-111 80q-43 49 -68 126q-24 74 -24 166q0 72 16 155q15 76 45 149q29 70 75 134q44 62 102 109q55 45 127 73q66 26 150 26q76 0 127 -21q52 -21 84 -52q29 -28 46 -68q15 -36 15 -68z M559 962q-81 0 -148 -35q-66 -35 -117 -93t-85 -134q-33 -73 -50 -159q145 17 224 33q98 20 160 40q65 21 106 45q38 22 63 51q22 25 30 54t8 57q0 19 -10 47q-8 23 -32 45q-23 22 -59 35q-37 14 -90 14zM803 1465l-253 -259q-10 -11 -18 -14q-9 -3 -22 -3h-58l190 244 q13 17 27 25q13 7 38 7h96z" />
<glyph unicode="&#xea;" horiz-adv-x="888" d="M836 824q0 -42 -12 -80q-12 -37 -40 -71q-29 -35 -77 -64q-51 -31 -126 -56t-184 -45q-113 -21 -250 -35l-3 -42q-1 -14 -1 -42q0 -153 69 -238q70 -87 209 -87q54 0 98 12q41 11 77 30q37 19 61 39q13 10 46 39q4 3 17 14.5t19 16.5q14 11 27 11q12 0 21 -10l23 -27 q-46 -49 -98 -91q-48 -39 -96 -63q-51 -26 -101 -37q-48 -11 -112 -11q-86 0 -151 28t-111 80q-43 49 -68 126q-24 74 -24 166q0 72 16 155q15 76 45 149q29 70 75 134q44 62 102 109q55 45 127 73q66 26 150 26q76 0 127 -21q52 -21 84 -52q29 -28 46 -68q15 -36 15 -68z M559 962q-81 0 -148 -35q-66 -35 -117 -93t-85 -134q-33 -73 -50 -159q145 17 224 33q98 20 160 40q65 21 106 45q38 22 63 51q22 25 30 54t8 57q0 19 -10 47q-8 23 -32 45q-23 22 -59 35q-37 14 -90 14zM806 1197h-67q-15 0 -26 12l-139 167q-5 4 -10 12q-2 -3 -6 -7l-5 -5 l-182 -167q-8 -6 -13 -8q-10 -4 -16 -4h-68l254 252h87z" />
<glyph unicode="&#xeb;" horiz-adv-x="894" d="M837 824q0 -42 -12 -80q-12 -37 -40 -71q-29 -35 -77 -64q-51 -31 -126 -56t-184 -45q-115 -21 -249 -35q-1 -7 -2.5 -21t-1.5 -21q-1 -14 -1 -42q0 -151 70 -238t208 -87q54 0 98 12t78 30t60 39q38 31 47 39q6 5 18 16t17 15q14 11 27 11q12 0 21 -10l23 -27 q-46 -49 -98 -91q-48 -39 -96 -63q-51 -26 -101 -37q-48 -11 -112 -11q-86 0 -151 28t-111 80q-43 49 -68 126q-24 74 -24 166q0 72 16 155q15 76 45 149q29 70 75 134q44 62 102 109q55 45 127 73q66 26 150 26q76 0 127 -21q52 -21 84 -52q29 -28 46 -68q15 -36 15 -68z M560 962q-81 0 -148 -35q-66 -35 -117 -93t-85 -134q-33 -73 -50 -159q145 17 224 33q98 20 160 40q65 21 106 45q38 22 63 51q22 25 30 54t8 57q0 19 -10 47q-8 23 -32 45q-23 22 -59 35q-37 14 -90 14zM466 1315q-1 -15 -11 -31q-9 -15 -21 -27q-10 -10 -30 -17 q-19 -7 -33 -7t-30 7q-17 7 -25 17q-10 12 -15 27q-4 15 -3 31q1 17 11 33t22 27q13 12 29 18q18 7 32 7t31 -7q14 -6 25 -18q8 -9 15 -27q5 -12 3 -33zM817 1315q-1 -15 -11 -31q-9 -15 -21 -27q-10 -10 -30 -17q-19 -7 -33 -7q-15 0 -31 7q-15 7 -24 17q-12 14 -16 27 q-4 15 -3 31q1 17 11 33t22 27q13 12 29 18q18 7 33 7q13 0 31 -7q14 -6 25 -18q8 -9 15 -27q5 -12 3 -33z" />
<glyph unicode="&#xec;" horiz-adv-x="443" d="M320 77q40 -1 36 -36l-5 -41h-148h-97l20 164l95 774q-9 0 -25.5 0.5t-24.5 1.5q-15 1 -30 1q-3 0 -8.5 0.5t-7.5 0.5h-11q-40 2 -36 36l5 41h148h97l-115 -938q9 0 25.5 -0.5t24.5 -1.5q15 -1 31 -1q3 0 8 -0.5t7 -0.5h11zM221 1465q25 0 36 -7q12 -8 21 -25l131 -244 h-56q-11 0 -20 3q-7 2 -15 14l-191 259h94z" />
<glyph unicode="&#xed;" horiz-adv-x="572" d="M314 77q40 -1 36 -36l-5 -41h-148h-97l20 164l95 774q-9 0 -25.5 0.5t-24.5 1.5q-15 1 -31 1q-3 0 -8 0.5t-7 0.5h-11q-40 2 -36 36l5 41h148h97l-115 -938q9 0 25.5 -0.5t24.5 -1.5q15 -1 31 -1q3 0 8 -0.5t7 -0.5h11zM560 1465l-253 -259q-10 -11 -18 -14q-9 -3 -22 -3 h-58l191 244q14 18 26 25q13 7 38 7h96z" />
<glyph unicode="&#xee;" horiz-adv-x="595" d="M328 77q40 -1 36 -36l-5 -41h-148h-97l20 164l95 774q-9 0 -25 0.5t-24 1.5q-15 1 -31 1q-3 0 -8.5 0.5t-7.5 0.5h-11q-40 2 -36 36l5 41h148h98l-116 -938q9 0 25.5 -0.5t24.5 -1.5q15 -1 31 -1q3 0 8 -0.5t7 -0.5h11zM588 1197h-67q-15 0 -26 12l-139 167q-5 4 -10 12 q-2 -3 -6 -7t-6 -5l-181 -167q-8 -6 -13 -8q-10 -4 -16 -4h-69l254 252h87z" />
<glyph unicode="&#xef;" horiz-adv-x="634" d="M345 77q41 -1 36 -36l-5 -41h-148h-97l20 164l95 774q-9 0 -25.5 0.5t-24.5 1.5q-15 1 -30 1q-3 0 -8.5 0.5t-7.5 0.5h-11q-41 2 -36 36l5 41h148h97l-115 -938q9 0 25.5 -0.5t24.5 -1.5q15 -1 31 -1q3 0 8 -0.5t7 -0.5h11zM270 1315q-1 -15 -11 -31q-8 -12 -22 -27 q-10 -10 -29 -17t-33 -7q-15 0 -31 7q-15 7 -24 17q-10 12 -15 27q-4 15 -3 31q1 17 11 33q11 18 21 27q13 12 29 18q17 7 32 7t32 -7q14 -6 25 -18q8 -9 15 -27q5 -12 3 -33zM621 1315q-1 -15 -11 -31q-8 -12 -22 -27q-10 -10 -29 -17t-33 -7q-15 0 -31 7q-17 7 -25 17 q-10 12 -15 27q-4 15 -3 31q1 17 11 33t22 27q13 12 29 18q17 7 33 7q13 0 31 -7q14 -6 25 -18q8 -9 15 -27q5 -12 3 -33z" />
<glyph unicode="&#xf0;" horiz-adv-x="1064" d="M501 1096q-6 8 -5 18t15 22l143 111q-52 32 -123 58q-69 26 -139 40q-9 1 -17 9q-7 7 -5 22q0 5 4 14q1 3 3 8t3 7l9 20q91 -15 176 -45q86 -30 160 -80l174 139l14 -30q5 -8 3 -16q-2 -12 -16 -24l-129 -102q59 -48 105 -111q44 -60 75 -143q30 -81 39 -180 q9 -104 -5 -220q-18 -142 -61 -256q-44 -117 -112 -198q-68 -82 -162 -127q-91 -44 -211 -44q-93 0 -171 33q-74 31 -130 95q-54 61 -78 151q-24 87 -10 199q12 99 52 185t106 152t152 103t193 37q53 0 107 -14q53 -14 101 -43q45 -27 85 -74q38 -44 64 -106q7 186 -49 309 q-57 124 -160 200l-186 -148zM450 65q92 0 163 35q73 36 128 101q55 66 93 161q36 91 55 215q-9 51 -33 104t-64 93q-43 43 -97 67q-56 25 -135 25q-90 0 -162 -30q-70 -29 -124 -85q-52 -54 -84 -128q-33 -77 -43 -157q-12 -94 8 -170t61 -126t103 -78q60 -27 131 -27z" />
<glyph unicode="&#xf1;" horiz-adv-x="1150" d="M1019 77q41 -1 36 -36l-5 -41h-148h-98l80 651q18 143 -38 225q-56 81 -190 81q-100 0 -193 -51q-91 -50 -171 -142l-70 -572l-24 -192h-97l10 81l105 857q-9 0 -25.5 0.5t-24.5 1.5q-15 1 -31 1h-15q-2 0 -6 0.5t-5 0.5q-41 2 -36 36l5 41h148h53q26 0 28 -26l-10 -153 q78 86 180 141q99 54 213 54q86 0 145 -26q59 -27 96 -77q35 -48 49 -121q13 -68 2 -160l-70 -570q9 0 25 -0.5t24 -1.5q15 -1 31 -1q3 0 8.5 -0.5t7.5 -0.5h11zM776 1311q45 0 70 28q26 29 33 76h60q-4 -35 -18 -69q-14 -33 -35 -56q-22 -24 -52 -37q-29 -13 -64 -13 q-33 0 -62 17q-19 11 -53 37q-43 33 -49 37q-25 17 -51 17q-42 0 -69 -30t-34 -75h-62q4 35 18 69q12 29 37 56q22 24 52 37q29 13 64 13q34 0 63 -17q26 -15 53 -37q24 -20 48 -36q25 -17 51 -17z" />
<glyph unicode="&#xf2;" horiz-adv-x="1062" d="M586 1035q110 0 191 -37q82 -37 133 -106q52 -70 71 -165q19 -96 4 -217q-16 -125 -57 -216q-44 -96 -111 -165q-65 -66 -159 -105q-90 -37 -201 -37q-110 0 -191 37q-85 39 -134 105q-52 70 -71 165q-19 94 -4 216q15 124 57 217q43 96 112 165t159 106t201 37zM467 63 q90 0 163 32t124 89q53 60 86 141q33 82 45 185q12 102 0 184q-12 84 -51 142q-41 61 -102 91q-63 31 -156 31q-92 0 -163 -31q-70 -30 -124 -91q-53 -59 -86 -142q-35 -86 -46 -184q-13 -108 0 -185q14 -83 52 -141q39 -58 102 -89q66 -32 156 -32zM523 1465q25 0 36 -7 t20 -25l131 -244h-55q-12 0 -21 3q-7 2 -15 14l-190 259h94z" />
<glyph unicode="&#xf3;" horiz-adv-x="1062" d="M586 1035q110 0 191 -37q82 -37 133 -106q52 -70 71 -165q19 -96 4 -217q-16 -125 -57 -216q-44 -96 -111 -165q-65 -66 -159 -105q-90 -37 -201 -37q-110 0 -191 37q-85 39 -134 105q-52 70 -71 165q-19 94 -4 216q15 124 57 217q43 96 112 165t159 106t201 37zM467 63 q90 0 163 32t124 89q53 60 86 141q33 82 45 185q12 102 0 184q-12 84 -51 142q-41 61 -102 91q-63 31 -156 31q-92 0 -163 -31q-70 -30 -124 -91q-53 -59 -86 -142q-35 -86 -46 -184q-13 -108 0 -185q14 -83 52 -141q39 -58 102 -89q66 -32 156 -32zM870 1465l-253 -259 q-10 -11 -18 -14q-9 -3 -22 -3h-58l190 244q13 17 27 25q13 7 38 7h96z" />
<glyph unicode="&#xf4;" horiz-adv-x="1062" d="M586 1035q110 0 191 -37q82 -37 133 -106q52 -70 71 -165q19 -96 4 -217q-16 -125 -57 -216q-44 -96 -111 -165q-65 -66 -159 -105q-90 -37 -201 -37q-110 0 -191 37q-85 39 -134 105q-52 70 -71 165q-19 94 -4 216q15 124 57 217q43 96 112 165t159 106t201 37zM467 63 q90 0 163 32t124 89q53 60 86 141q33 82 45 185q12 102 0 184q-12 84 -51 142q-41 61 -102 91q-63 31 -156 31q-92 0 -163 -31q-70 -30 -124 -91q-53 -59 -86 -142q-35 -86 -46 -184q-13 -108 0 -185q14 -83 52 -141q39 -58 102 -89q66 -32 156 -32zM873 1197h-67 q-16 0 -26 12l-139 167q-5 4 -10 12q-2 -3 -6 -7l-5 -5l-182 -167q-8 -6 -13 -8q-10 -4 -16 -4h-68l254 252h87z" />
<glyph unicode="&#xf5;" horiz-adv-x="1065" d="M587 1035q110 0 191 -37q82 -37 133 -106q52 -70 71 -165q19 -96 4 -217q-16 -125 -57 -216q-43 -96 -111 -165q-65 -66 -159 -105q-90 -37 -201 -37q-110 0 -191 37q-85 39 -134 105q-52 70 -71 165q-19 94 -4 216q15 124 57 217q43 96 112 165t159 106t201 37zM468 63 q90 0 163 32t124 89q53 60 86 141q33 82 45 185q12 102 0 184q-12 84 -51 142q-41 61 -102 91q-63 31 -155 31q-93 0 -164 -31q-70 -30 -124 -91q-53 -59 -86 -142q-34 -86 -46 -184q-13 -108 0 -185q14 -83 52 -141q39 -58 102 -89q66 -32 156 -32zM740 1311q45 0 70 28 q24 27 32 76h61q-4 -35 -18 -69q-13 -31 -36 -56q-23 -24 -51 -37q-29 -13 -64 -13q-33 0 -62 17q-19 11 -53 37t-50 37q-25 17 -50 17q-42 0 -69 -30t-34 -75h-63q4 32 19 69q12 29 37 56q23 24 51 37q29 13 64 13q34 0 63 -17q26 -15 53 -37q18 -15 49 -36q25 -17 51 -17z " />
<glyph unicode="&#xf6;" horiz-adv-x="1065" d="M587 1035q110 0 191 -37q82 -37 133 -106q52 -70 71 -165q19 -96 4 -217q-16 -125 -57 -216q-43 -96 -111 -165q-65 -66 -159 -105q-90 -37 -201 -37q-110 0 -191 37q-85 39 -134 105q-52 70 -71 165q-19 94 -4 216q15 124 57 217q43 96 112 165t159 106t201 37zM468 63 q90 0 163 32t124 89q53 60 86 141q33 82 45 185q12 102 0 184q-12 84 -51 142q-41 61 -102 91q-63 31 -155 31q-93 0 -164 -31q-70 -30 -124 -91q-53 -59 -86 -142q-34 -86 -46 -184q-13 -108 0 -185q14 -83 52 -141q39 -58 102 -89q66 -32 156 -32zM531 1315 q-1 -15 -11 -31q-9 -15 -21 -27q-10 -10 -30 -17q-19 -7 -33 -7t-30 7q-17 7 -25 17q-11 12 -15 27t-3 31q1 17 11 33t22 27q13 12 29 18q17 7 32 7q13 0 31 -7q14 -6 25 -18q8 -9 15 -27q5 -12 3 -33zM882 1315q-1 -15 -11 -31q-9 -15 -21 -27q-10 -10 -30 -17 q-19 -7 -33 -7q-15 0 -31 7q-17 7 -25 17q-11 12 -15 27t-3 31q1 17 11 33t22 27q13 12 29 18q17 7 33 7q14 0 31 -7q14 -6 25 -18q8 -9 15 -27q5 -12 3 -33z" />
<glyph unicode="&#xf7;" horiz-adv-x="1077" d="M65 724h962l-9 -75h-962zM492 1050q4 39 35 68q29 28 71 28q17 0 35 -8q19 -9 28 -20q12 -15 17 -31q6 -18 3 -37q-4 -25 -12 -38q-11 -17 -24 -29t-33 -20q-19 -8 -38 -8q-39 0 -64 28q-23 25 -18 67zM402 321q4 38 36 68q29 28 70 28q18 0 36 -8q19 -9 28 -20 q10 -13 16 -31t3 -37q-4 -25 -12 -38q-13 -20 -24 -30q-13 -12 -33 -20q-17 -7 -37 -7q-40 0 -64 27t-19 68z" />
<glyph unicode="&#xf8;" horiz-adv-x="1144" d="M946 894q53 -69 72 -166q20 -99 5 -218q-16 -125 -57 -216q-44 -96 -111 -165q-65 -66 -159 -105q-90 -37 -201 -37q-165 0 -265 81l-97 -112q-14 -17 -33 -25t-35 -8h-39l161 186q-61 69 -85 170q-24 100 -7 231q15 124 57 217q43 96 112 165t159 106t201 37 q91 0 160 -25q71 -26 121 -71l104 119q14 16 23 22q10 7 31 7h51zM190 510q-14 -107 0 -191q13 -82 56 -142l602 695q-40 43 -99 66q-58 23 -134 23q-91 0 -164 -33t-127 -91q-53 -58 -88 -142q-34 -83 -46 -185zM504 61q90 0 165 32q73 31 126 90q54 61 87 142 q34 86 46 185q24 195 -43 313l-599 -691q82 -71 218 -71z" />
<glyph unicode="&#xf9;" horiz-adv-x="1146" d="M1007 77q41 -1 36 -36l-5 -41h-148h-53q-29 0 -26 27l9 151q-77 -84 -181 -141q-97 -53 -213 -53q-87 0 -145 26q-61 27 -97 77q-34 46 -48 121q-13 68 -2 160l70 570q-9 0 -25.5 0.5t-24.5 1.5q-15 1 -31 1h-15q-2 0 -6 0.5t-5 0.5q-41 2 -36 36l5 41h148h97l-80 -651 q-18 -143 38 -225t191 -82q99 0 192 51q92 50 172 141l84 685q-9 0 -25 0.5t-24 1.5q-15 1 -31 1h-15q-2 0 -6 0.5t-5 0.5q-40 2 -36 36l5 41h147h98l-116 -938q9 0 25.5 -0.5t24.5 -1.5q15 -1 31 -1q3 0 8 -0.5t7 -0.5h11zM559 1465q25 0 36 -7q12 -8 21 -25l131 -244h-56 q-11 0 -20 3q-7 2 -15 14l-191 259h94z" />
<glyph unicode="&#xfa;" horiz-adv-x="1146" d="M1007 77q41 -1 36 -36l-5 -41h-148h-53q-29 0 -26 27l9 151q-77 -84 -181 -141q-97 -53 -213 -53q-87 0 -145 26q-61 27 -97 77q-34 46 -48 121q-13 68 -2 160l70 570q-9 0 -25.5 0.5t-24.5 1.5q-15 1 -31 1h-15q-2 0 -6 0.5t-5 0.5q-41 2 -36 36l5 41h148h97l-80 -651 q-18 -143 38 -225t191 -82q99 0 192 51q92 50 172 141l84 685q-9 0 -25 0.5t-24 1.5q-15 1 -31 1h-15q-2 0 -6 0.5t-5 0.5q-40 2 -36 36l5 41h147h98l-116 -938q9 0 25.5 -0.5t24.5 -1.5q15 -1 31 -1q3 0 8 -0.5t7 -0.5h11zM907 1465l-253 -259q-9 -11 -19 -14q-9 -3 -22 -3 h-58l191 244q13 17 27 25q13 7 37 7h97z" />
<glyph unicode="&#xfb;" horiz-adv-x="1146" d="M1007 77q41 -1 36 -36l-5 -41h-148h-53q-29 0 -26 27l9 151q-77 -84 -181 -141q-97 -53 -213 -53q-87 0 -145 26q-61 27 -97 77q-34 46 -48 121q-13 68 -2 160l70 570q-9 0 -25.5 0.5t-24.5 1.5q-15 1 -31 1h-15q-2 0 -6 0.5t-5 0.5q-41 2 -36 36l5 41h148h97l-80 -651 q-18 -143 38 -225t191 -82q99 0 192 51q92 50 172 141l84 685q-9 0 -25 0.5t-24 1.5q-15 1 -31 1h-15q-2 0 -6 0.5t-5 0.5q-40 2 -36 36l5 41h147h98l-116 -938q9 0 25.5 -0.5t24.5 -1.5q15 -1 31 -1q3 0 8 -0.5t7 -0.5h11zM909 1197h-66q-15 0 -26 12l-140 167q-3 2 -9 12 q-2 -3 -6 -7t-6 -5l-181 -167q-7 -5 -14 -8q-10 -4 -15 -4h-69l254 252h87z" />
<glyph unicode="&#xfc;" horiz-adv-x="1147" d="M1007 77q41 -1 36 -36l-5 -41h-148h-53q-29 0 -26 27l9 151q-77 -84 -181 -141q-97 -53 -213 -53q-87 0 -145 26q-61 27 -97 77q-34 46 -48 121q-13 68 -2 160l70 570q-9 0 -25.5 0.5t-24.5 1.5q-15 1 -31 1h-15q-2 0 -6 0.5t-5 0.5q-41 2 -36 36l5 41h148h97l-80 -651 q-18 -143 38 -225t191 -82q99 0 192 51q92 50 172 141l84 685q-9 0 -25 0.5t-24 1.5q-15 1 -31 1h-15q-2 0 -6 0.5t-5 0.5q-40 2 -36 36l5 41h147h98l-116 -938q9 0 25.5 -0.5t24.5 -1.5q15 -1 31 -1q3 0 8 -0.5t7 -0.5h11zM566 1315q-1 -15 -11 -31q-9 -15 -21 -27 q-10 -10 -29 -17t-34 -7q-14 0 -30 7q-15 7 -24 17q-12 14 -16 27q-4 12 -2 31t10 33q10 16 22 27q13 12 29 18q18 7 32 7t31 -7q14 -6 25 -18q8 -9 15 -27q5 -12 3 -33zM918 1315q-1 -15 -11 -31q-7 -12 -22 -27q-10 -10 -29 -17t-33 -7q-16 0 -32 7q-15 7 -24 17 q-11 12 -15 27t-3 31q2 19 10 33q10 16 22 27q13 12 29 18q18 7 33 7t32 -7q13 -5 24 -18q10 -11 16 -27q5 -12 3 -33z" />
<glyph unicode="&#xfd;" horiz-adv-x="1181" d="M1077 1019h77l-5 -41q-5 -34 -45 -36q-1 0 -5 -0.5t-6 -0.5h-23q-11 0 -37 -2l-707 -1267q-6 -12 -19 -23q-11 -9 -29 -9h-70l228 398l-285 901l-62 3q-41 2 -36 36l5 41h68h81h207l-5 -41q-5 -34 -45 -36q-2 0 -5.5 -0.5t-6.5 -0.5q-16 0 -33 -1q-9 -1 -29.5 -1.5 t-31.5 -0.5l228 -736q3 -10 7 -32q4 -19 5 -32q2 6 7 16l8 16q2 5 7 16t8 16l405 736q-9 0 -25 0.5t-24 1.5q-15 1 -30 1h-15q-2 0 -6 0.5t-5 0.5q-40 2 -36 36l5 41h205h75zM913 1465l-253 -259q-9 -11 -19 -14q-9 -3 -21 -3h-59l191 244q13 17 27 25q13 7 37 7h97z" />
<glyph unicode="&#xfe;" horiz-adv-x="1067" d="M28 -360l227 1850h97l-80 -650q79 91 174 143t208 52q188 0 277 -129q88 -128 56 -390q-13 -107 -55 -208q-40 -95 -106 -168q-66 -72 -152 -112q-88 -41 -195 -41q-105 0 -175 40q-74 43 -117 117l-62 -504h-97zM616 957q-102 0 -190 -52q-89 -53 -164 -147l-65 -535 q48 -89 114 -124q67 -36 158 -36q90 0 162 33q71 33 124 93q54 62 86 143q35 88 46 184q28 226 -43 334q-71 107 -228 107z" />
<glyph unicode="&#xff;" horiz-adv-x="1183" d="M1078 1019h77l-5 -41q-4 -34 -45 -36q-1 0 -5 -0.5t-6 -0.5h-23q-11 0 -37 -2l-707 -1267q-6 -12 -19 -23q-10 -9 -29 -9h-70l228 398l-285 901l-62 3q-40 2 -36 36l5 41h68h81h208l-6 -41q-4 -34 -45 -36q-2 0 -5.5 -0.5t-6.5 -0.5q-16 0 -33 -1q-9 -1 -29.5 -1.5 t-31.5 -0.5l228 -736q3 -10 7 -32q4 -19 5 -32l8 16t7 16q3 5 8 16t7 16l405 736q-9 0 -25 0.5t-24 1.5q-15 1 -30 1h-15q-2 0 -6 0.5t-5 0.5q-41 2 -36 36l5 41h205h75zM574 1315q-1 -15 -11 -31q-7 -12 -22 -27q-10 -10 -29 -17t-33 -7q-15 0 -31 7q-15 7 -24 17 q-10 12 -15 27q-4 15 -3 31q2 19 10 33q10 16 22 27q13 12 29 18q18 7 32 7q15 0 32 -7q13 -5 24 -18q10 -11 16 -27q5 -12 3 -33zM925 1315q-1 -15 -11 -31q-8 -12 -22 -27q-10 -10 -29 -17t-33 -7q-16 0 -32 7q-15 7 -24 17q-10 12 -15 27q-4 15 -3 31q1 17 11 33 q11 18 21 27q13 12 29 18q18 7 33 7t32 -7q14 -6 25 -18q8 -9 15 -27q5 -12 3 -33z" />
<glyph unicode="&#x152;" horiz-adv-x="2214" d="M1336 1449h858l-11 -87l-26 -213h-50q-41 0 -38 50q0 5 2 28t4.5 62t5.5 73h-661l-72 -586h577l-11 -85h-576l-75 -604h661q17 100 28 163q8 50 51 50h49l-26 -213l-10 -87h-857l42 342q-47 -81 -112 -150q-65 -68 -138 -112q-76 -46 -161 -69q-87 -24 -182 -24 q-139 0 -246 52q-108 53 -178 149q-71 98 -99 233q-29 138 -8 304q22 171 83 304q63 138 156 233q94 97 215 150t259 53q94 0 175 -24q79 -23 145 -71q63 -46 110 -112q49 -70 75 -150zM1165 452q53 124 71 273q18 153 -4 272q-22 120 -82 206q-58 84 -150 129t-209 45 q-115 0 -219 -45t-183 -129t-132 -206q-55 -127 -72 -272q-18 -155 5 -273q24 -122 82 -205q57 -82 151 -128q89 -44 208 -44q120 0 220 44q104 46 182 128q80 84 132 205z" />
<glyph unicode="&#x153;" horiz-adv-x="1587" d="M1254 1035q65 0 113 -16q47 -16 84 -46q35 -29 53 -69t18 -90q0 -38 -12 -74q-12 -35 -40 -68q-30 -35 -76 -62q-49 -29 -122 -53q-79 -26 -174 -44q-108 -21 -236 -35q-1 -8 -1 -24v-24q0 -176 71 -271q70 -94 195 -94q58 0 98 11q42 11 79 31q38 20 60 38q38 31 47 39 q6 5 18 16t17 15q14 11 26 11q13 0 22 -10l23 -27q-39 -41 -97 -90q-45 -38 -96 -64q-48 -25 -102 -37q-48 -11 -112 -11q-124 0 -205 78t-108 225q-30 -66 -76 -127q-42 -56 -97 -95q-54 -39 -118 -60t-137 -21q-83 0 -141 29q-56 28 -97 80q-39 50 -57 114q-19 68 -19 136 q0 162 40 293q39 127 108 216q67 86 163 134q92 46 200 46q123 0 197 -70q74 -71 98 -190q61 123 160 191q101 69 233 69zM392 61q71 0 131 26q56 24 103 70q43 41 76 103q33 61 53 124q19 61 29 135q10 77 10 133q0 69 -15 126q-15 58 -44 97q-29 40 -74 62q-44 22 -105 22 q-93 0 -167 -43q-78 -45 -128 -121q-54 -79 -82 -191q-28 -111 -28 -252q0 -60 12 -107q13 -53 42 -93q30 -43 75 -66q48 -25 112 -25zM1241 964q-74 0 -137 -30q-64 -30 -111 -85q-48 -56 -81 -133q-34 -84 -45 -175q185 22 291 50q115 31 175 65q65 37 86 75q23 41 23 80 q0 31 -12 58q-13 29 -36 49t-63 33q-41 13 -90 13z" />
<glyph unicode="&#x178;" horiz-adv-x="1392" d="M1308 1449h65l-5 -41q-4 -34 -45 -36q-19 -1 -44 -2.5t-32 -1.5l-579 -770l-64 -517q11 0 34 -0.5t33 -1.5q20 -1 45 -1q6 0 12 -0.5t7 -0.5q41 -1 36 -36l-5 -41h-172h-105h-173l5 41q5 35 45 36q1 0 7.5 0.5t12.5 0.5q25 0 45 1q10 1 33.5 1.5t34.5 0.5l63 517 l-390 770q-7 0 -32.5 1.5l-42.5 2.5q-41 2 -36 36l5 41h65h11h80h16h206l-5 -41q-5 -34 -45 -36q-1 0 -6.5 -0.5t-9.5 -0.5q-19 0 -36 -1q-9 -1 -27 -1.5t-28 -0.5l305 -610q11 -22 19 -46q6 -19 13 -44q8 18 24 44q11 19 30 46l454 610q-9 0 -28 0.5t-27 1.5q-16 1 -36 1 q-4 0 -9 0.5t-6 0.5q-40 2 -36 36l5 41h205h15h82h11zM621 1705q-1 -15 -11 -31t-21 -26q-13 -11 -29 -17q-19 -7 -33 -7t-30 7q-13 6 -24 17q-10 10 -15 26q-4 15 -3 31t11 32q9 15 21 27q11 11 28 18t33 7q12 0 30 -7q14 -6 25 -18q8 -9 15 -27q5 -12 3 -32zM1047 1705 q-2 -17 -10 -31q-10 -17 -22 -26q-14 -11 -29 -17q-17 -7 -32 -7t-31 7q-13 6 -24 17q-10 10 -15 26q-4 15 -3 31q4 33 32 59q26 25 62 25q14 0 30 -7q13 -6 24 -18t15 -27q5 -15 3 -32z" />
<glyph unicode="&#x2c6;" horiz-adv-x="747" d="M645 1197h-66q-17 0 -27 12l-139 167q-5 4 -10 12q-2 -3 -6 -7l-5 -5l-182 -167q-8 -6 -13 -8q-10 -4 -16 -4h-68l254 252h87z" />
<glyph unicode="&#x2dc;" horiz-adv-x="793" d="M521 1311q45 0 70 28q26 29 33 76h61q-4 -32 -19 -69q-14 -33 -35 -56q-23 -24 -51 -37q-29 -13 -64 -13q-33 0 -62 17q-23 13 -54 37q-43 33 -49 37q-25 17 -50 17q-43 0 -70 -30q-25 -28 -33 -75h-63q4 32 19 69q13 31 36 56q22 24 52 37q29 13 64 13q34 0 63 -17 q26 -15 53 -37q18 -15 49 -36q25 -17 50 -17z" />
<glyph unicode="&#x2000;" horiz-adv-x="916" />
<glyph unicode="&#x2001;" horiz-adv-x="1832" />
<glyph unicode="&#x2002;" horiz-adv-x="916" />
<glyph unicode="&#x2003;" horiz-adv-x="1832" />
<glyph unicode="&#x2004;" horiz-adv-x="610" />
<glyph unicode="&#x2005;" horiz-adv-x="458" />
<glyph unicode="&#x2006;" horiz-adv-x="305" />
<glyph unicode="&#x2007;" horiz-adv-x="305" />
<glyph unicode="&#x2008;" horiz-adv-x="229" />
<glyph unicode="&#x2009;" horiz-adv-x="366" />
<glyph unicode="&#x200a;" horiz-adv-x="101" />
<glyph unicode="&#x2010;" horiz-adv-x="743" d="M141 649h476l-10 -83h-476z" />
<glyph unicode="&#x2011;" horiz-adv-x="743" d="M141 649h476l-10 -83h-476z" />
<glyph unicode="&#x2012;" horiz-adv-x="743" d="M141 649h476l-10 -83h-476z" />
<glyph unicode="&#x2013;" horiz-adv-x="1067" d="M138 629h806l-9 -73h-806z" />
<glyph unicode="&#x2014;" horiz-adv-x="1589" d="M138 629h1328l-9 -73h-1328z" />
<glyph unicode="&#x2018;" horiz-adv-x="421" d="M155 1082q-16 37 -22 78q-6 37 -1 77q11 82 58 154q49 76 118 134l25 -19q8 -7 7 -14q-2 -8 -8 -13q-46 -53 -77 -104q-32 -51 -39 -106q-8 -60 21 -123q5 -8 3 -17q-1 -14 -18 -20z" />
<glyph unicode="&#x2019;" horiz-adv-x="416" d="M290 1512q17 -36 23 -77q6 -37 1 -77q-11 -82 -58 -154q-49 -76 -118 -134l-26 19q-6 6 -5 14q2 9 8 14q45 51 77 103q30 49 38 107q8 61 -20 122q-5 9 -4 16q2 15 18 21z" />
<glyph unicode="&#x201a;" horiz-adv-x="452" d="M283 180q17 -36 23 -77q6 -37 1 -77q-11 -82 -58 -154q-49 -76 -118 -134l-26 18q-7 8 -6 15q2 9 8 14q48 54 78 103t38 107q7 59 -21 122q-5 8 -3 16q1 15 18 21z" />
<glyph unicode="&#x201c;" horiz-adv-x="697" d="M155 1082q-16 37 -22 78q-6 37 -1 77q11 82 58 154q49 76 118 134l25 -19q8 -7 7 -14q-2 -8 -8 -13q-46 -53 -77 -104q-32 -51 -39 -106q-8 -60 21 -123q5 -8 3 -17q-1 -14 -18 -20zM431 1082q-17 41 -23 78q-5 33 0 77q11 84 57 154q49 76 118 134l26 -19q8 -6 6 -14 t-8 -13q-46 -53 -77 -104q-32 -51 -39 -106q-7 -60 21 -123q5 -8 3 -17q-1 -14 -18 -20z" />
<glyph unicode="&#x201d;" horiz-adv-x="692" d="M290 1512q17 -36 23 -77q6 -37 1 -77q-11 -82 -58 -154q-49 -76 -118 -134l-26 19q-6 6 -5 14q2 9 8 14q45 51 77 103q30 49 38 107q8 61 -20 122q-5 9 -4 16q2 15 18 21zM566 1512q17 -36 23 -77q6 -37 1 -77q-11 -82 -58 -154q-49 -76 -118 -134l-27 19q-7 6 -5 14 q2 9 8 14q45 51 77 103q31 51 39 107q7 59 -21 122q-5 8 -3 16q2 15 18 21z" />
<glyph unicode="&#x201e;" horiz-adv-x="728" d="M283 180q17 -36 23 -77q6 -37 1 -77q-11 -82 -58 -154q-49 -76 -118 -134l-26 18q-7 8 -6 15q2 9 8 14q48 54 78 103t38 107q7 59 -21 122q-5 8 -3 16q1 15 18 21zM558 180q18 -40 24 -77q5 -33 0 -77q-11 -84 -57 -154q-49 -76 -118 -134l-27 18q-7 7 -5 15q2 9 8 14 q45 51 77 103q31 51 39 107q7 59 -21 122q-5 8 -3 16q1 15 18 21z" />
<glyph unicode="&#x2022;" horiz-adv-x="832" d="M116 610q7 61 38 118q30 55 76 97q44 40 104 65q55 23 118 23q65 0 115 -23q53 -24 88 -65q37 -43 53 -97q16 -55 9 -118q-7 -60 -38 -115q-31 -56 -76 -95q-46 -40 -104 -64q-59 -24 -121 -24q-61 0 -112 24q-53 25 -88 64q-37 41 -53 95t-9 115z" />
<glyph unicode="&#x2026;" horiz-adv-x="1455" d="M118 79q3 22 11 37t24 30q14 12 32 20q19 8 38 8q18 0 36 -8q19 -9 28 -20q12 -16 17 -30q6 -18 3 -37q-4 -25 -12 -38q-11 -17 -24 -29t-33 -20q-17 -7 -38 -7q-40 0 -64 27q-23 25 -18 67zM1122 79q3 19 12 37q8 17 23 30q13 12 33 20q19 8 38 8q18 0 36 -8 q19 -9 28 -20q10 -14 16 -30q7 -20 4 -37q-3 -23 -13 -38q-11 -17 -24 -29q-14 -12 -32 -20q-17 -7 -38 -7q-40 0 -64 27q-24 26 -19 67zM619 79q3 19 12 37q8 15 24 30q14 12 32 20q19 8 38 8q18 0 36 -8q19 -9 28 -20q12 -16 17 -30q6 -18 3 -37q-4 -25 -12 -38 q-10 -15 -25 -29q-14 -12 -32 -20q-17 -7 -38 -7q-40 0 -64 27q-24 26 -19 67z" />
<glyph unicode="&#x202f;" horiz-adv-x="366" />
<glyph unicode="&#x2039;" horiz-adv-x="508" d="M88 525l2 14l294 387l29 -16q14 -10 13 -25q-2 -13 -10 -24l-224 -300q-19 -24 -26 -30q9 -7 19 -28l150 -301q6 -11 4 -24q-1 -15 -19 -25l-33 -16z" />
<glyph unicode="&#x203a;" horiz-adv-x="509" d="M123 137l-29 16q-15 8 -14 26q1 12 10 23l224 301q7 11 14 18q4 4 12 10q-1 1 -2.5 3t-3.5 5t-3 4q-5 6 -9 18l-151 300q-6 11 -4 24q1 16 20 25l33 16l199 -387l-1 -14z" />
<glyph unicode="&#x205f;" horiz-adv-x="458" />
<glyph unicode="&#x20ac;" horiz-adv-x="1306" d="M97 884h168q33 133 93 242q61 109 139 183q76 72 178 114q96 40 210 40q71 0 120 -11q52 -12 99 -35q45 -22 83 -56q35 -31 70 -77l-37 -36q-6 -6 -10 -8q-8 -4 -14 -4q-7 0 -18 11q-3 3 -11.5 12t-13.5 14q-1 1 -39 34q-22 19 -55 34q-41 18 -76 27q-41 10 -104 10 q-94 0 -173 -32q-81 -33 -146 -95q-66 -63 -115 -154q-49 -90 -79 -213h616l-4 -31q-1 -11 -10 -20t-26 -9h-590q-9 -48 -15 -99q-4 -28 -5 -41t-3 -41h529l-3 -31q-1 -11 -11 -21q-8 -8 -25 -8h-492q-3 -130 22 -224q25 -95 75 -160q51 -66 122 -98t165 -32q65 0 114 12 q52 13 89 31q43 22 69 41q30 23 50 41q23 22 35 31q16 13 23 13q11 0 19 -10l33 -35q-44 -48 -90 -86q-47 -38 -104 -66q-56 -27 -118 -42q-59 -14 -135 -14q-116 0 -205 40q-90 40 -149 116q-58 74 -89 188q-30 111 -27 254h-166l8 60h161q2 28 3 41t5 41q6 49 15 99h-162z " />
<glyph unicode="&#x2122;" horiz-adv-x="1438" d="M984 1034q9 20 17 30l263 373q7 9 11 10q6 2 15 2h59l-72 -589h-64l56 454l10 45l-272 -389q-11 -17 -27 -17h-11q-18 0 -24 17l-181 387v-43l-56 -454h-64l72 589h58q9 0 15 -2q4 -1 11 -10l176 -373zM588 1449l-7 -60h-204l-65 -529h-73l65 529h-206l8 60h482z" />
<glyph unicode="&#x25fc;" horiz-adv-x="1018" d="M0 1019h1019v-1019h-1019v1019z" />
</font>
</defs>
</svg>
